2 сезон

iTunes

1 сезон

1

iTunes

iTunes

iTunes

1 сезон

RePack

30

ИГРА 18+

pack

ВАЖНО

!!Акция!!

Alien_RageХит недели

RePack

MK11
pack

Забери бонус

RePack

jed

!!Акция!!

Alien_Rage

RePack

fifa19

RePack

Assassins Creed: Odyssey

RePack

NEED FOR SPEED™ PAYBACK

4 сезон

9 сезон

Бесстыжие 9 сезон

Все сериалы

все сериалы на PB.wtf

RePack

FAR CRY 5
  

Мамаши / Milf (Скотт Вилер) [2010 г., комедия, DVDRip] pb.wtf

Мамаши через торрент pb.wtf

Размер: 779 MB | Добавлен: 9 лет назад | Торрент скачан:342 раза
Скачать  

07-11-2010 17:17 Мамаши Скачать торрент  

Мамаши / Milf Год выпуска: 2010
Страна: США
Жанр: комедия
Продолжительность: 88 мин.
Перевод: Любительский (двухголосый)
Режиссер: Скотт Вилер
Сценарий: Jonathan Haug
Премьера в мире: 18 октября 2010
Мировой рейтинг IMDB

В ролях: Джозеф Бутон, Рамон Камачо, Филип Марлет, Джек Каллисон, Джэми Бернадетт, Синди Аррата, Дженни Блум, Макс Чирков, Майлс Крэнфорд, Silvija Padjen
Описание: Группа студентов-лузеров, не способных даже заговорить с девушками своего возраста, открывают для себя «общение» с сексапильными женщинами «постарше».
Качество: DVDRip
Формат: AVI
Видео: 624x352 (16:9), 23.976 fps, XVID ~968 kbps avg, 0.184 bit/pixel
Аудио: Русский, 48 kHz, МР3, 2 ch, 128.00 kbps Constant
Аудио 2: Английский, 48 kHz, МР3, 2 ch, 128.00 kbps Constant (отдельным файлом)

General
Complete name : Mamochki.2010.L2.DVDRip.700MB.avi
Format : AVI
Format/Info : Audio Video Interleave
File size : 698 MiB
Duration : 1h 28mn
Overall bit rate : 1 106 Kbps
Writing application : VirtualDubMod 1.5.10.3 (build 2550/release)
Writing library : VirtualDubMod build 2550/release

Video
ID : 0
Format : MPEG-4 Visual
Format profile : Advanced Simple@L5
Format settings, BVOP : Yes
Format settings, QPel : No
Format settings, GMC : No warppoints
Format settings, Matrix : Default (H.263)
Codec ID : XVID
Codec ID/Hint : XviD
Duration : 1h 28mn
Bit rate : 968 Kbps
Width : 624 pixels
Height : 352 pixels
Display aspect ratio : 16:9
Frame rate : 23.976 fps
Color space : YUV
Chroma subsampling : 4:2:0
Bit depth : 8 bits
Scan type : Progressive
Bits/(Pixel*Frame) : 0.184
Stream size : 612 MiB (88%)
Writing library : XviD 1.2.1 (UTC 2008-12-04)

Audio
ID : 1
Format : MPEG Audio
Format version : Version 1
Format profile : Layer 3
Mode : Joint stereo
Mode extension : MS Stereo
Codec ID : 55
Codec ID/Hint : MP3
Duration : 1h 28mn
Bit rate mode : Constant
Bit rate : 128 Kbps
Channel(s) : 2 channels
Sampling rate : 48.0 KHz
Stream size : 80.9 MiB (12%)
Alignment : Aligned on interleaves
Interleave, duration : 42 ms (1.00 video frame)
Interleave, preload duration : 504 ms
скриншот  скриншот  скриншот  скриншот  скриншот  pb.wtf



Скачать Мамаши через торрент http://i11.fastpic.ru/big/2010/1107/64/3b4c4ee597cf850666283379c0a40b64.jpg Скачать фильм Мамаши через торрент бесплантно в хорошем качестве Описание: Группа студентов-лузеров, не способных даже заговорить с девушками своего возраста, открывают для себя «общение» с сексапильными ... 4.8 10 26
Info! Золотая раздача, скачанное не засчитывается.
Торрент: Зарегистрирован [2010-11-07 17:17] · скачан: 342 раз
Статус: √ проверено
Размер: 779 MB
Как cкачать? Как скачать Мамаши через торрент | qTorrent

% Раздел Тема Автор DL S | L
Гонзо [ 2.37 GB ] Обнаженные сисястые мамаши 4 / Busty MILFs Exposed 4 [2020 Big Boobs Big Butt Big Cocks Blowjobs Brunettes Gonzo Lingerie MILF POV Shaved WEB-DLRip] Pir@tya2010 Скачать
5 | 0
Русские порно ролики [ 109 MB ] Уставшая мамаша и неугомонный сынок [2010 MILF Incest All Sex CamRip] Скорпион1976 Скачать
1 | 0
Зарубежные сериалы [ 2.06 GB ] Мамаша / SMILF / Сезон: 2 / Серии: 1-6 из 10 [2019 WEB-DLRip] [MVO] killermax2013 Скачать
1 | 0
Зарубежные сериалы [ 7.06 GB ] Мамаша / SMILF / Сезон: 2 / Серии: 1-6 из 10 [2019 WEB-DL 720p] [MVO] killermax2013 Скачать
1 | 0
Зарубежные сериалы [ 6.52 GB ] Мамаша / SMILF / Сезон: 1 / Серии: 1-8 из 8 [2017 WEBRip WEB-DL 720p] [MVO] killermax2013 Скачать
1 | 0
Порно фильмы HD [ 5.43 GB ] Твоя Мамаша Вылизала Мне Жопу 18 / Your Mom Tossed My Salad 18 [2016 MILF Mature Rimming Gonzo Ass Lick Big Tits Big Butt WEB-DL 1080p Оригинальный] nn99nn Скачать
1 | 0
Порно фильмы HD [ 9.62 GB ] Стрёмная велопоездка большезадых мамаш / Big Butt Scary MILF Bike [2013 Big Butt Gonzo Interracial MILF HDRip 1080p Оригинальный] DJASFUL Скачать
1 | 0

28-11-2019 20:33  

Отключить всю рекламу на сайте

07-11-2010 17:46 Мамаши Скачать торрент  

Вот это да, я в восторге!!! Спасибо!!!pb.wtf



08-11-2010 17:29 Мамаши Скачать торрент  

отстой.pb.wtf



    Дорогой пользователь! Огромная просьба, поблагодарите релизера, оцените раздачу и оставьте свои комментарий, если Вы скачали Мамаши через торрент бесплатно! Внесите свою лепту в развитие PiratBit!
    Комментировать посты могут только пользователи прошедшие не сложную регистрацию
    Показать сообщения:    

    Мамаши через торрент
    Скачать бесплатно Мамаши
    Мамаши скачать торрент
    Мамаши смотреть онлайн
    Cкачать фильм Мамаши бесплатно
    Мамаши скачать торрент в хорошем качестве
    Мамаши смотреть онлайн бесплатно в хорошем качестве


    Вы не можете начинать темы
    Вы не можете отвечать на сообщения
    Вы не можете редактировать свои сообщения
    Вы не можете удалять свои сообщения
    Вы не можете голосовать в опросах
    Вы не можете прикреплять файлы к сообщениям
    Вы можете скачивать файлы