новый адрес
Ссылка на приватное зеркало всего за 1$. Внимание количество ограничено!!!

iTunes

1+1

iTunes

мы

WEB-DL

1

iTunes

Чернобыль

iTunes

Ральф против интернета

Лицензия

ПШазам

Лицензия

Оно 2

Лицензия

30
pack

Вам бонус

ВАЖНО

!!Акция!!

Alien_RageХит недели

RePack

Resident Evil 21

ИГРА 18+

pack

RePack

jed

!!Акция!!

Alien_Rage

RePack

fifa19

RePack

Assassins Creed: Odyssey

RePack

NEED FOR SPEED™ PAYBACK

3 сезон

9 сезон

Бесстыжие 9 сезон

Все сериалы

все сериалы на PB.wtf

RePack

FAR CRY 5
Ребята, катастрофически не хватает 1900р. для оплаты серверов за Октябрь (всвязи с блокировками трафик упал в 3 раза), 1-2р., выручайте.
  

Не имей 100 рублей... (Геннадий Казанский) [1959, СССР, комедия, SATRip от AVP Studio] pb.wtf

Не имей 100 рублей... через торрент pb.wtf

Размер: 1.09 GB | Добавлен: 1 год 11 мес. назад | Торрент скачан:26 раз
Скачать  

20-12-2017 09:43 Не имей 100 рублей... Скачать торрент  

Не имей 100 рублей...
Страна: СССР
Производство: Ленфильм

Жанр: комедия
Год выпуска: 1959
Продолжительность: 01:21:11

Перевод: Не требуется
Cубтитры: нет
Оригинальная аудиодорожка: русский

Режиссер: Геннадий Казанский

В ролях:
Александр Никитин, Павел Рудаков, Людмила Шагалова, Алина Немченко, Сергей Сибель, Виктор Харитонов, Евгений Леонов, Степан Крылов, Е. Арясов, Виктор Бриц, В. Прошкин, Аркадий Пышняк, Ю. Стеер...
Об актёрах подробней

Описание:
Иван Андреевич Бажанов, директор краеведческого музея, - человек очень увлечённый. Сорвался вдруг этот почтенный человек с места и отправился искать клад. Обладая богатой фантазией, Иван Андреевич нарисовал такую яркую и увлекательную картину поисков своему соседу, шофёру Гуляеву (Павел Рудаков), что тот не выдержал и, оставив своё многочисленное семейство, отправился в путешествие вместе с Бажановым.

Исходник: DVB
Качество видео: SATRip
Формат видео: AVI

Видео: 704x528 (4:3), 25 fps, XviD ~ 1721 kbps avg, 0.185 bit/pixel
Аудио: 48 kHz, Dolby Digital AC3 2.0, 192 kbps

Раздача от:
Общее
Полное имя : Ne.imey.100.rubley...1959.SATRip_[New-team]_by_AVP_Studio.avi
Формат : AVI
Формат/Информация : Audio Video Interleave
Размер файла : 1,09 Гбайт
Продолжительность : 1 ч. 21 м.
Общий поток : 1923 Кбит/сек
Программа кодирования : VirtualDubMod 1.5.10.3 | www.virtualdub-fr.org || (build 2550/release)
Библиотека кодирования : VirtualDubMod build 2550/release

Видео
Идентификатор : 0
Формат : MPEG-4 Visual
Профиль формата : Advanced Simple@L5
Настройки формата : BVOP1 / Custom Matrix
Параметр BVOP формата : 1
Параметр QPel формата : Нет
Параметр GMC формата : Без точки перехода
Параметр матрицы формата : Выборочная
Идентификатор кодека : XVID
Идентификатор кодека/Подсказка : XviD
Продолжительность : 1 ч. 21 м.
Битрейт : 1721 Кбит/сек
Ширина : 704 пикселя
Высота : 528 пикселей
Соотношение сторон : 4:3
Частота кадров : 25,000 кадров/сек
Цветовое пространство : YUV
Субдискретизация насыщенности : 4:2:0
Битовая глубина : 8 бит
Тип развёртки : Прогрессивная
Метод сжатия : С потерями
Бит/(Пиксели*Кадры) : 0.185
Размер потока : 999 Мбайт (90%)
Библиотека кодирования : XviD 73

Аудио
Идентификатор : 1
Формат : AC-3
Формат/Информация : Audio Coding 3
Идентификатор кодека : 2000
Продолжительность : 1 ч. 21 м.
Вид битрейта : Постоянный
Битрейт : 192 Кбит/сек
Каналы : 2 канала
Расположение каналов : Front: L R
Частота : 48,0 КГц
Частота кадров : 31,250 кадров/сек (1536 SPF)
Битовая глубина : 16 бит
Метод сжатия : С потерями
Размер потока : 111 Мбайт (10%)
Выравнивание : Разделение по промежуткам
Продолжительность промежутка : 40 мс. (1,00 видеокадр)
Время предзагрузки промежутка : 500 мс
pb.wtf



Скачать Не имей 100 рублей... через торрент http://s020.radikal.ru/i714/1712/ca/a48a8ae7b2e1.png Скачать фильм Не имей 100 рублей... через торрент бесплантно в хорошем качестве Описание:Иван Андреевич Бажанов, директор краеведческого музея, - человек очень увлечённый. Сорвался вдруг этот почтенный человек с места и ... 5 10 1
Info! Золотая раздача, скачанное не засчитывается.
Торрент: Зарегистрирован [2017-12-20 09:43] · скачан: 26 раз
Статус: √ проверено
Размер: 1.09 GB
Как cкачать? Как скачать Не имей 100 рублей... через торрент | qTorrent

% Раздел Тема Автор DL S | L
Кино СССР [ 1.09 GB ] Не имей 100 рублей... [1959 СССР SATRip-AVC от AVP Studio] AVP Studio Скачать
1 | 0
Кино СССР [ 745 MB ] Не имей 100 рублей... [1959 СССР SATRip от AVP Studio] AVP Studio Скачать
1 | 0

28-11-2019 20:33  

Отключить всю рекламу на сайте


    Дорогой пользователь! Огромная просьба, поблагодарите релизера, оцените раздачу и оставьте свои комментарий, если Вы скачали Не имей 100 рублей... через торрент бесплатно! Внесите свою лепту в развитие PiratBit!
    Комментировать посты могут только пользователи прошедшие не сложную регистрацию
    Показать сообщения:    

    Не имей 100 рублей... через торрент
    Скачать бесплатно Не имей 100 рублей...
    Не имей 100 рублей... скачать торрент
    Не имей 100 рублей... смотреть онлайн
    Cкачать фильм Не имей 100 рублей... бесплатно
    Не имей 100 рублей... скачать торрент в хорошем качестве
    Не имей 100 рублей... смотреть онлайн бесплатно в хорошем качестве


    Вы не можете начинать темы
    Вы не можете отвечать на сообщения
    Вы не можете редактировать свои сообщения
    Вы не можете удалять свои сообщения
    Вы не можете голосовать в опросах
    Вы не можете прикреплять файлы к сообщениям
    Вы можете скачивать файлы