2 сезон

iTunes

MVO

1

2 сезон

iTunes

iTunes

1 сезон

RePack

30

Новинка

ВАЖНО

ИГРА 18+

pack

RePack

MK11
pack

Легкие деньги

RePack

jed

RePack

fifa19

RePack

RDR2

RePack

NEED FOR SPEED™ PAYBACK

4 сезон

9 сезон

Бесстыжие 9 сезон

Все сериалы

все сериалы на PB.wtf

RePack

FAR CRY 5

Anonymous, доброй ночи, мы не успеваем собрать деньги на оплату серверов за декабрь и январь, помогите нам пожалуйста в это трудное время. В качестве благодарности мы отключим Вам всю рекламу на сайте (укажите свой ник в строку Ваше имя)!

×
  
Magnet ссылка

Варкрафт / Warcraft (Дункан Джонс) [2016 г., фэнтези, боевик, приключения, BDRip 1080p, 60fps, Dub, MVO, AVO, VO, Original] pb.wtf

Варкрафт через торрент pb.wtf

Размер: 16.46 GB | Добавлен: 3 года 1 мес. назад | Торрент скачан:566 раз
Скачать  

20-12-2017 12:13 Варкрафт Скачать торрент  

Варкрафт / Warcraft
Год выпуска: 2016
Страна: Китай, Канада, Япония, США
Жанр: фэнтези, боевик, приключения
Продолжительность: 02:03:07
Перевод: Dub, MVO, AVO, VO, Original
Субтитры: русские (форс.(x2)), русские (x6), английские (Full + SDH)
Режиссер: Дункан Джонс
rating
В ролях: Трэвис Фиммел (Anduin Lothar), Пола Пэттон (Garona), Бен Фостер (Medivh), Доминик Купер (Llane Wrynn), Тоби Кеббелл (Durotan / Antonidas), Бен Шнетцер (Khadgar), Роберт Казински (Orgrim), Клэнси Браун (Blackhand), Дэниэл Ву (Gul'dan), Рут Негга (Lady Taria), Анна Галвин (Draka), Каллум Кит Ренни (Moroes)

Описание: Веками магия и неприступные стены защищали людей от любых напастей. Но древнее зло, побежденное и забытое тысячелетия назад, пробудилось.

Качество: BDRip 1080p 60fps
Формат: MKV
Видео: AVC, 1920x788 (2.40:1), 15000 kbps, 59.94 fps, 0,164 bpp
Аудио#1: AC3 / 5.1 / 48 kHz / 640 kbps / 16 bit | DUB - Blu-ray CEE
Аудио#2: AC3 / 5.1 / 48 kHz / 640 kbps / 16 bit | MVO - FocusStudio
Аудио#3: AC3 / 5.1 / 48 kHz / 640 kbps / 16 bit | AVO - Д.Есарев
Аудио#4: AC3 / 5.1 / 48 kHz / 640 kbps / 16 bit | AVO - Ю.Живов
Аудио#5: AC3 / 5.1 / 48 kHz / 384 kbps / 16 bit | AVO - А.Гаврилов
Аудио#6: AC3 / 5.1 / 48 kHz / 640 kbps / 16 bit | VO - Solod
Аудио#7: AC3 / 5.1 / 48 kHz / 640 kbps / 16 bit | ENG

General
Unique ID : 251438352963783447232221889479958931400 (0xBD2943EB9EE2C5FF8375586E035927C8)
Complete name : D:\Торренты\Варкрафт 1080p 60fps.mkv
Format : Matroska
Format version : Version 4 / Version 2
File size : 16.5 GiB
Duration : 2 h 3 min
Overall bit rate mode : Variable
Overall bit rate : 19.1 Mb/s
Movie name : Warcraft (2016)
Encoded date : UTC 2017-12-20 07:43:32
Writing application : mkvmerge v18.0.0 ('Apricity') 64-bit
Writing library : libebml v1.3.5 + libmatroska v1.4.8

Video
ID : 1
Format : AVC
Format/Info : Advanced Video Codec
Format profile : High@L4.2
Format settings : CABAC / 4 Ref Frames
Format settings, CABAC : Yes
Format settings, RefFrames : 4 frames
Codec ID : V_MPEG4/ISO/AVC
Duration : 2 h 3 min
Bit rate mode : Variable
Bit rate : 14.9 Mb/s
Maximum bit rate : 19.0 Mb/s
Width : 1 920 pixels
Height : 788 pixels
Display aspect ratio : 2.40:1
Frame rate mode : Constant
Frame rate : 59.940 (60000/1001) FPS
Standard : NTSC
Color space : YUV
Chroma subsampling : 4:2:0
Bit depth : 8 bits
Scan type : Progressive
Bits/(Pixel*Frame) : 0.164
Stream size : 12.8 GiB (78%)
Language : English
Default : Yes
Forced : No
Color range : Limited
Color primaries : BT.709
Transfer characteristics : BT.709
Matrix coefficients : BT.709

Audio #1
ID : 2
Format : AC-3
Format/Info : Audio Coding 3
Format settings, Endianness : Big
Codec ID : A_AC3
Duration : 2 h 3 min
Bit rate mode : Constant
Bit rate : 640 kb/s
Channel(s) : 6 channels
Channel positions : Front: L C R, Side: L R, LFE
Sampling rate : 48.0 kHz
Frame rate : 31.250 FPS (1536 SPF)
Bit depth : 16 bits
Compression mode : Lossy
Stream size : 564 MiB (3%)
Title : Dub | DD 5.1 @ 640 kbps - Blu-ray CEE
Language : Russian
Service kind : Complete Main
Default : Yes
Forced : No

Audio #2
ID : 3
Format : AC-3
Format/Info : Audio Coding 3
Format settings, Endianness : Big
Codec ID : A_AC3
Duration : 2 h 3 min
Bit rate mode : Constant
Bit rate : 640 kb/s
Channel(s) : 6 channels
Channel positions : Front: L C R, Side: L R, LFE
Sampling rate : 48.0 kHz
Frame rate : 31.250 FPS (1536 SPF)
Bit depth : 16 bits
Compression mode : Lossy
Stream size : 564 MiB (3%)
Title : MVO | DD 5.1 @ 640 kbps - FocusStudio
Language : Russian
Service kind : Complete Main
Default : No
Forced : No

Audio #3
ID : 4
Format : AC-3
Format/Info : Audio Coding 3
Format settings, Endianness : Big
Codec ID : A_AC3
Duration : 2 h 3 min
Bit rate mode : Constant
Bit rate : 640 kb/s
Channel(s) : 6 channels
Channel positions : Front: L C R, Side: L R, LFE
Sampling rate : 48.0 kHz
Frame rate : 31.250 FPS (1536 SPF)
Bit depth : 16 bits
Compression mode : Lossy
Stream size : 564 MiB (3%)
Title : AVO | DD 5.1 @ 640 kbps - D.Yesarev
Language : Russian
Service kind : Complete Main
Default : No
Forced : No

Audio #4
ID : 5
Format : AC-3
Format/Info : Audio Coding 3
Format settings, Endianness : Big
Codec ID : A_AC3
Duration : 2 h 3 min
Bit rate mode : Constant
Bit rate : 640 kb/s
Channel(s) : 6 channels
Channel positions : Front: L C R, Side: L R, LFE
Sampling rate : 48.0 kHz
Frame rate : 31.250 FPS (1536 SPF)
Bit depth : 16 bits
Compression mode : Lossy
Stream size : 564 MiB (3%)
Title : AVO | DD 5.1 @ 640 kbps - Yu.Zhivov
Language : Russian
Service kind : Complete Main
Default : No
Forced : No

Audio #5
ID : 6
Format : AC-3
Format/Info : Audio Coding 3
Format settings, Endianness : Big
Codec ID : A_AC3
Duration : 2 h 3 min
Bit rate mode : Constant
Bit rate : 384 kb/s
Channel(s) : 6 channels
Channel positions : Front: L C R, Side: L R, LFE
Sampling rate : 48.0 kHz
Frame rate : 31.250 FPS (1536 SPF)
Bit depth : 16 bits
Compression mode : Lossy
Stream size : 338 MiB (2%)
Title : AVO | DD 5.1 @ 384 kbps - A.Gavrilov
Language : Russian
Service kind : Complete Main
Default : No
Forced : No

Audio #6
ID : 7
Format : AC-3
Format/Info : Audio Coding 3
Format settings, Endianness : Big
Codec ID : A_AC3
Duration : 2 h 3 min
Bit rate mode : Constant
Bit rate : 640 kb/s
Channel(s) : 6 channels
Channel positions : Front: L C R, Side: L R, LFE
Sampling rate : 48.0 kHz
Frame rate : 31.250 FPS (1536 SPF)
Bit depth : 16 bits
Compression mode : Lossy
Stream size : 564 MiB (3%)
Title : VO | DD 5.1 @ 640 kbps - Solod
Language : Russian
Service kind : Complete Main
Default : No
Forced : No

Audio #7
ID : 8
Format : AC-3
Format/Info : Audio Coding 3
Format settings, Endianness : Big
Codec ID : A_AC3
Duration : 2 h 3 min
Bit rate mode : Constant
Bit rate : 640 kb/s
Channel(s) : 6 channels
Channel positions : Front: L C R, Side: L R, LFE
Sampling rate : 48.0 kHz
Frame rate : 31.250 FPS (1536 SPF)
Bit depth : 16 bits
Compression mode : Lossy
Stream size : 564 MiB (3%)
Title : Original | DD 5.1 @ 640 kbps
Language : English
Service kind : Complete Main
Default : No
Forced : No

Text #1
ID : 9
Format : UTF-8
Codec ID : S_TEXT/UTF8
Codec ID/Info : UTF-8 Plain Text
Duration : 1 h 58 min
Bit rate : 0 b/s
Count of elements : 17
Stream size : 531 Bytes (0%)
Title : Forced [MBB]
Language : Russian
Default : Yes
Forced : No

Text #2
ID : 10
Format : UTF-8
Codec ID : S_TEXT/UTF8
Codec ID/Info : UTF-8 Plain Text
Duration : 1 h 43 min
Bit rate : 0 b/s
Count of elements : 9
Stream size : 305 Bytes (0%)
Title : Forced [Blu-ray CEE]
Language : Russian
Default : No
Forced : No

Text #3
ID : 11
Format : UTF-8
Codec ID : S_TEXT/UTF8
Codec ID/Info : UTF-8 Plain Text
Duration : 1 h 52 min
Bit rate : 60 b/s
Count of elements : 1216
Stream size : 49.7 KiB (0%)
Title : Blu-ray CEE
Language : Russian
Default : No
Forced : No

Text #4
ID : 12
Format : UTF-8
Codec ID : S_TEXT/UTF8
Codec ID/Info : UTF-8 Plain Text
Duration : 1 h 52 min
Bit rate : 63 b/s
Count of elements : 1251
Stream size : 52.6 KiB (0%)
Title : FocusStudio
Language : Russian
Default : No
Forced : No

Text #5
ID : 13
Format : UTF-8
Codec ID : S_TEXT/UTF8
Codec ID/Info : UTF-8 Plain Text
Duration : 1 h 52 min
Bit rate : 61 b/s
Count of elements : 1377
Stream size : 50.3 KiB (0%)
Title : MBB
Language : Russian
Default : No
Forced : No

Text #6
ID : 14
Format : UTF-8
Codec ID : S_TEXT/UTF8
Codec ID/Info : UTF-8 Plain Text
Duration : 1 h 53 min
Bit rate : 57 b/s
Count of elements : 1053
Stream size : 48.3 KiB (0%)
Title : Nunegsdli
Language : Russian
Default : No
Forced : No

Text #7
ID : 15
Format : UTF-8
Codec ID : S_TEXT/UTF8
Codec ID/Info : UTF-8 Plain Text
Duration : 1 h 53 min
Bit rate : 60 b/s
Count of elements : 1212
Stream size : 50.7 KiB (0%)
Title : Full [Voronine]
Language : Russian
Default : No
Forced : No

Text #8
ID : 16
Format : UTF-8
Codec ID : S_TEXT/UTF8
Codec ID/Info : UTF-8 Plain Text
Duration : 1 h 53 min
Bit rate : 70 b/s
Count of elements : 1367
Stream size : 58.6 KiB (0%)
Title : SDH [Voronine]
Language : Russian
Default : No
Forced : No

Text #9
ID : 17
Format : UTF-8
Codec ID : S_TEXT/UTF8
Codec ID/Info : UTF-8 Plain Text
Duration : 1 h 53 min
Bit rate : 60 b/s
Count of elements : 1212
Stream size : 50.7 KiB (0%)
Title : Full
Language : English
Default : No
Forced : No

Text #10
ID : 18
Format : UTF-8
Codec ID : S_TEXT/UTF8
Codec ID/Info : UTF-8 Plain Text
Duration : 1 h 53 min
Bit rate : 70 b/s
Count of elements : 1367
Stream size : 58.6 KiB (0%)
Title : SDH
Language : English
Default : No
Forced : No

Text #11
ID : 19
Format : UTF-8
Codec ID : S_TEXT/UTF8
Codec ID/Info : UTF-8 Plain Text
Duration : 1 h 52 min
Bit rate : 35 b/s
Count of elements : 1074
Stream size : 29.4 KiB (0%)
Title : SDH-(Colored)
Language : English
Default : No
Forced : No

Menu
00:00:00.000 : :Chapter 1
00:09:26.482 : :Chapter 2
00:15:49.406 : :Chapter 3
00:22:36.146 : :Chapter 4
00:29:16.171 : :Chapter 5
00:38:43.321 : :Chapter 6
00:46:44.092 : :Chapter 7
00:53:02.679 : :Chapter 8
00:56:17.332 : :Chapter 9
01:02:43.926 : :Chapter 10
01:07:48.314 : :Chapter 11
01:12:24.548 : :Chapter 12
01:17:13.045 : :Chapter 13
01:22:45.669 : :Chapter 14
01:26:32.145 : :Chapter 15
01:32:29.669 : :Chapter 16
01:40:25.102 : :Chapter 17
01:47:38.118 : :Chapter 18
01:51:12.832 : :Chapter 19
01:53:58.832 : :Chapter 20
02:03:07.129 : :Chapter 21

Авторская группа в ВК
pb.wtf



Скачать Варкрафт через торрент http://s04.radikal.ru/i177/1702/ed/0cbc6f18f43b.jpg Скачать фильм Варкрафт через торрент бесплантно в хорошем качестве Описание: Веками магия и неприступные стены защищали людей от любых напастей. Но древнее зло, побежденное и забытое тысячелетия назад, ... 9.6 10 21
Info! Золотая раздача, скачанное не засчитывается.
Торрент: Зарегистрирован [2017-12-20 12:13] · скачан: 566 раз
Статус: √ проверено
Размер: 16.46 GB
Как cкачать? Как скачать Варкрафт через торрент | UTorrent

% Раздел Тема Автор DL S | L
Фильмы (HD 720p, 1080p) (48-60 fps) [ 4.86 GB ] Варкрафт / Warcraft [2016 BDRip - HEVC 1080p 10 bit 60 FPS] DUB [] dd2d3 Скачать
2 | 0
MMORPG [ 27.85 GB ] World of Warcraft: Warlords of Draenor / Мир Варкрафта - Владыки Дренора [Пиратка RUS / ENG] Tarelkin Скачать
2 | 0
Фильмы [HD 720p, 1080p] (Хороший звук DUB, MVO) [ 4.47 GB ] Варкрафт / Warcraft [2016 BDRip 1080p HEVC ()] Мичман37 Скачать
1 | 0
Фильмы [HD 720p, 1080p] (Хороший звук DUB, MVO) [ 7.95 GB ] Варкрафт / Warcraft [2016 BDRip 1080p от еnvy / NNNB] еnvy Скачать
2 | 0
Фильмы с авторской озвучкой [ 1.46 GB ] Варкрафт / Warcraft [2016 BDRip] [AVO] killermax2013 Скачать
2 | 0
Ultra HD (UHD: 2K, 4K, 8K) — видео сверхвысокой чёткости [ 70.4 GB ] Варкрафт / Warcraft [2016 UHD BDRemux 2160p] DUB + MVO + 4xAVO sheker187 Скачать
2 | 0
Фильмы (Blu-ray, BD-Remux, HDDVD) [ 26.89 GB ] Варкрафт / Warcraft [2016 BD Remux 1080p] DUB [] bober100 Скачать
1 | 0


Последний раз редактировалось: Tiberiumsun69 (2018-02-09 08:42), всего редактировалось 3 раз(а)

28-11-2019 20:33  

Отключить всю рекламу на сайте

20-12-2017 12:13 Варкрафт Скачать торрент  

Ребята не бомбите пожалуйста сильно.Я оформляю по старинке через сайт.pb.wtf



20-12-2017 12:20 Варкрафт Скачать торрент  

Tiberiumsun69 писал(а):

Ребята не бомбите пожалуйста сильно.Я оформляю по старинке через сайт.

вроде все ок, скрины только полноразмерные сделай без переходаpb.wtf



20-12-2017 12:25 Варкрафт Скачать торрент  

killermax2013 писал(а):

killermax2013

Вроде поправил.pb.wtf



20-12-2017 12:29 Варкрафт Скачать торрент  

Tiberiumsun69 писал(а):

killermax2013 писал(а):

killermax2013

Вроде поправил.

теперь все ок pb.wtf



20-12-2017 14:11 Варкрафт Скачать торрент  

20-12-2017 14:18 Варкрафт Скачать торрент  

schultz, Спасибо.Буду Если что ориентироваться.pb.wtf



20-12-2017 14:43 Варкрафт Скачать торрент  

Просьба скачавших, после просмотра оставить отзыв - своё мнение! Это важноpb.wtf



20-12-2017 20:27 Варкрафт Скачать торрент  

вот сейчас скачаю и посмотрю, и хотя я уже смотрел, потом приду и оставлю отзыв.

Потому что: Война, это единственный ответ.pb.wtf



22-12-2017 21:01 Варкрафт Скачать торрент  

А мне например очень даже понравился.pb.wtf



28-12-2017 22:06 Варкрафт Скачать торрент  

Очень хорошо проделанная работа, смотрел на обычном FHD телеке, впечатлило больше чем в первый раз в кинотеатре. Только звук местами не дотягивает, на высокой громкости 5,1 вместо объемного звука сливается в шум во всех динамиках, в основном там где основная тема на высоких частотах заливается. Но это всего 2-3 раза за фильм слышно, особо не влияет на просмотр, видимо качество исходника подкачало.pb.wtf



08-01-2018 11:33 Варкрафт Скачать торрент  

Картинка тормозит, лагает видео, звук отстает, кривыми руками конвертировали. Не качайте!pb.wtf



08-01-2018 11:45 Варкрафт Скачать торрент  

Shermax86, Кодеки смените пожалуйста.Или железо у своего ПК.pb.wtf



13-04-2019 12:43 Варкрафт Скачать торрент  

Вызываю сида pb.wtf



04-10-2020 19:16 Варкрафт Скачать торрент  

вызываю сида!!!pb.wtf



    Дорогой пользователь! Огромная просьба, поблагодарите релизера, оцените раздачу и оставьте свои комментарий, если Вы скачали Варкрафт через торрент бесплатно! Внесите свою лепту в развитие PiratBit!
    Комментировать посты могут только пользователи прошедшие не сложную регистрацию
    Показать сообщения:    

    Варкрафт через торрент
    Скачать бесплатно Варкрафт
    Варкрафт скачать торрент
    Варкрафт смотреть онлайн
    Cкачать фильм Варкрафт бесплатно
    Варкрафт скачать торрент в хорошем качестве
    Варкрафт смотреть онлайн бесплатно в хорошем качестве


    Вы не можете начинать темы
    Вы не можете отвечать на сообщения
    Вы не можете редактировать свои сообщения
    Вы не можете удалять свои сообщения
    Вы не можете голосовать в опросах
    Вы не можете прикреплять файлы к сообщениям
    Вы можете скачивать файлы