Ссылка на приватное зеркало нашего сайта всего за 1$. Внимание количество ограничено!!!

2 сезон

iTunes

1 сезон

1

2 сезон

2 сезон

iTunes

1 сезон

RePack

30

Ultimate

ВАЖНО

ИГРА 18+

pack

RePack

MK11
pack

Забери бонус

RePack

jed

!!Акция!!

Alien_Rage

RePack

fifa19

RePack

Assassins Creed: Odyssey

RePack

NEED FOR SPEED™ PAYBACK

4 сезон

9 сезон

Бесстыжие 9 сезон

Все сериалы

все сериалы на PB.wtf

RePack

FAR CRY 5
  

Хроники Франкенштейна / The Frankenstein Chronicles / Сезон 2 / Серии 1-6 из 6 (Бенжамин Росс) [2017, драма, криминал, WEBRip] MVO [BaibaKo] pb.wtf

Хроники Франкенштейна через торрент pb.wtf

Размер: 3.43 GB | Добавлен: 2 года 11 мес. назад | Торрент скачан:124 раза
Скачать  

20-12-2017 15:43 Хроники Франкенштейна Скачать торрент  

Хроники Франкенштейна / The Frankenstein ChroniclesГод выпуска: 2017
Страна: Великобритания
Жанр: драма, криминал
Продолжительность: ~ 00:45:00
Перевод: Профессиональный многоголосый - BaibaKo
Субтитры: отсутствуют

Режиссер: Бенжамин Росс

rating

В ролях:

Шон Бин, Мэгги Кронин, Шон Блэйни, Брирс Энтони, Johnny Hamilton, Бобби Марно, Walter McCabe, Ross McKinney, Энтони Моррис, Дарраг О Коннор

Описание:

Инспектор полиции Джон Марлотт разыскивает маньяка, возомнившего себя Франкенштейном. Злодей воплощает действия книжного доктора в реальность — создает монстра из частей человеческих тел. Марлотт, обнаруживший одно из ужасных созданий убийцы, вынужден работать тайно и в одиночку бродить по Лондону 19-го века в поисках чудовища.

Качество: WEBRip
Формат: AVI
Видео кодек: XviD
Аудио кодек: AC3

Видео: XviD, 1500 kb/s, 720x400
Аудио: AC3, 192 kb/s (2 ch)
скриншот  скриншот  скриншот  

Общее
Полное имя : D:\Xp0Hiki.FpaHka.02.Bai\Xp0Hiki.FpaHka.2.01.Bai.avi
Формат : AVI
Формат/Информация : Audio Video Interleave
Размер файла : 535 Мбайт
Продолжительность : 45 м. 7 с.
Общий поток : 1656 Кбит/сек
Программа кодирования : VirtualDubMod 1.5.10.3 | www.virtualdub-fr.org || (build 2550/release)
Библиотека кодирования : VirtualDubMod build 2550/release

Видео
Идентификатор : 0
Формат : MPEG-4 Visual
Профиль формата : Advanced Simple@L5
Параметр BVOP формата : 2
Параметр QPel формата : Нет
Параметр GMC формата : Без точки перехода
Параметр матрицы формата : Default (H.263)
Идентификатор кодека : XVID
Идентификатор кодека/Подсказка : XviD
Продолжительность : 45 м. 7 с.
Битрейт : 1455 Кбит/сек
Ширина : 720 пикселей
Высота : 400 пикселей
Соотношение сторон : 16:9
Частота кадров : 24,000 кадра/сек
Цветовое пространство : YUV
Субдискретизация насыщенности : 4:2:0
Битовая глубина : 8 бит
Тип развёртки : Прогрессивная
Метод сжатия : С потерями
Бит/(Пиксели*Кадры) : 0.211
Размер потока : 470 Мбайт (88%)
Библиотека кодирования : XviD 1.2.1 (UTC 2008-12-04)

Аудио
Идентификатор : 1
Формат : AC-3
Формат/Информация : Audio Coding 3
Расширение режима : CM (complete main)
Параметр Endianness формата : Big
Идентификатор кодека : 2000
Продолжительность : 45 м. 7 с.
Вид битрейта : Постоянный
Битрейт : 192 Кбит/сек
Каналы : 2 канала
Расположение каналов : Front: L R
Частота : 48,0 КГц
Частота кадров : 31,250 кадров/сек (1536 spf)
Метод сжатия : С потерями
Размер потока : 62,0 Мбайт (12%)
Выравнивание : Разделение по промежуткам
Продолжительность промежутка : 42 мс. (1,00 видеокадр)
Время предзагрузки промежутка : 500 мс.

Внимание! Раздача ведётся путём добавления новых серий; при каждом добавлении создаётся новый торрент. Чтобы начать докачку новой серии, пользователям необходимо сделать следующее:
(1) остановить скачивание,
(2) удалить старый торрент у себя из клиента (старые серии удалять не надо),
(3) скачать новый торрент и запустить его у себя в клиенте вместо старого, при этом указать клиенту путь в старую папку куда и должно происходить скачивание новых серий.
Ваш клиент при этом должен произвести хеширование (проверку) старой папки (если не производит сам - помогите ему сделать это), и будет докачивать только те серии которых у вас ещё нет. Старые серии при этом не удаляются, а продолжают раздаваться!
Eсли вы уже удалили старые серии, то предотвратить повторную закачку старых серий можно, отжав галочку в соответствующих местах при запуске нового торрента. По возможности, желательно не удалять старые серии как можно дольше чтобы релизёр не столько продолжал раздавать старые серии, а смог сконцентрироваться на новых.
pb.wtf



Скачать Хроники Франкенштейна через торрент http://s020.radikal.ru/i708/1712/46/24b37a847460.jpg Скачать фильм Хроники Франкенштейна через торрент бесплантно в хорошем качестве Описание: Инспектор полиции Джон Марлотт разыскивает маньяка, возомнившего себя Франкенштейном. Злодей воплощает действия книжного доктора ... 10 10 11
Торрент: Зарегистрирован [2017-12-27 07:27] · скачан: 124 раз
Статус: √ проверено
Размер: 3.43 GB
Как cкачать? Как скачать Хроники Франкенштейна через торрент | qTorrent

% Раздел Тема Автор DL S | L
Зарубежные сериалы [ 7.47 GB ] Хроники Франкенштейна / The Frankenstein Chronicles / Сезон: 2 / Серии: 1-6 из 6 [2017 WEB-DL 1080p] 2xMVO [LostFilm Good People] bober100 Скачать
1 | 0
Зарубежные сериалы [ 4.26 GB ] Хроники Франкенштейна / The Frankenstein Chronicles / Сезон 2 / Серии 1-6 из 6 [2017 HDTVRip 720p WEBRip 720p] MVO [Good People] bober100 Скачать
1 | 0
Зарубежные сериалы [ 5.52 GB ] Хроники Франкенштейна / The Frankenstein Chronicles / Сезон 2 / Серии 1-6 из 6 [2017 WEBRip 720p] MVO [BaibaKo] bober100 Скачать
1 | 0


Последний раз редактировалось: bober100 (2017-12-27 07:27), всего редактировалось 1 раз

28-11-2019 20:33  

Отключить всю рекламу на сайте

20-12-2017 15:54 Хроники Франкенштейна Скачать торрент  

надо же, его не закрыли...pb.wtf



27-12-2017 09:29 Хроники Франкенштейна Скачать торрент  

Вот только на днях первый сезон глянул. На самом интересном закончили! Далее дикий сюжетный спойлер первого сезона.
Надеюсь ту девочку тоже воскресят.
В hd бы ещё... а то зажрался я...pb.wtf



27-12-2017 12:20 Хроники Франкенштейна Скачать торрент  

Клерик писал(а):

В hd бы ещё

на байбаках лежитpb.wtf



    Дорогой пользователь! Огромная просьба, поблагодарите релизера, оцените раздачу и оставьте свои комментарий, если Вы скачали Хроники Франкенштейна через торрент бесплатно! Внесите свою лепту в развитие PiratBit!
    Комментировать посты могут только пользователи прошедшие не сложную регистрацию
    Показать сообщения:    

    Хроники Франкенштейна через торрент
    Скачать бесплатно Хроники Франкенштейна
    Хроники Франкенштейна скачать торрент
    Хроники Франкенштейна смотреть онлайн
    Cкачать фильм Хроники Франкенштейна бесплатно
    Хроники Франкенштейна скачать торрент в хорошем качестве
    Хроники Франкенштейна смотреть онлайн бесплатно в хорошем качестве


    Вы не можете начинать темы
    Вы не можете отвечать на сообщения
    Вы не можете редактировать свои сообщения
    Вы не можете удалять свои сообщения
    Вы не можете голосовать в опросах
    Вы не можете прикреплять файлы к сообщениям
    Вы можете скачивать файлы