Ссылка на приватное зеркало нашего сайта всего за 1$. Внимание количество ограничено!!!

2 сезон

iTunes

1 сезон

1

iTunes

iTunes

iTunes

1 сезон

RePack

30

ИГРА 18+

pack

ВАЖНО

!!Акция!!

Alien_RageХит недели

RePack

MK11
pack

Забери бонус

RePack

jed

!!Акция!!

Alien_Rage

RePack

fifa19

RePack

Assassins Creed: Odyssey

RePack

NEED FOR SPEED™ PAYBACK

4 сезон

9 сезон

Бесстыжие 9 сезон

Все сериалы

все сериалы на PB.wtf

RePack

FAR CRY 5
  

Красавица и чудовище: Чудесное Рождество / Beauty and the Beast: The Enchanted Christmas (Эндрю Найт) [1997 г., мультфильм, фэнтези, семейный, BDRip-AVC] DUB, MVO pb.wtf

Красавица и чудовище: Чудесное Рождество через торрент pb.wtf

Размер: 1.45 GB | Добавлен: 2 года 10 мес. назад | Торрент скачан:340 раз
Скачать  

20-12-2017 17:21 Красавица и чудовище: Чудесное Рождество Скачать торрент  

Красавица и чудовище: Чудесное Рождество / Beauty and the Beast: The Enchanted Christmas
Год выпуска: 1997
Страна: США, Канада
Жанр: мультфильм, фэнтези, семейный, музыка
Продолжительность: 01:10:43
Перевод: Дублированный, профессиональный многоголосый
Субтитры: Русские, английские

Режиссер: Эндрю Найт

rating

В ролях: Пейдж О’Хара, Робби Бенсон, Джерри Орбах, Дэвид Огден Стайерз, Бернадетт Питерс, Тим Карри, Хейли Джоэл Осмент

Описание: Любовь Белл к чудовищу изменила все вокруг и теперь все заколдованные предметы в замке снова стали людьми, даже маленький Чип, некогда бывший всего лишь маленькой чашечкой. В свое первое Рождество, которое Чип встречает не как чашечка, а как мальчик, он просит маму рассказать, что же на самом деле случилось в замке прошлым Рождеством. Рождество — это время волшебства, но сильнее всего на свете оно в замке чудовища. Время тьмы и горя ушло навеки, но что способствовало этому?

Качество: BDRip-AVC (Beauty.and.the.Beast.The.Enchanted.Christmas.1997.BDRemux.1080p.x264-xfiles)
Формат: MKV
Видео: MPEG-4 AVC, 1842 Кбит/с, 1024x576, 23,976 кадр/с
Аудио #1: AC3, 2 ch, 192 Кбит/с | Дублированный (Невафильм / Канал "Дисней")
Аудио #2: AC3, 6 ch, 448 Кбит/с | Профессиональный многоголосый
Аудио #3: AC3, 6 ch, 448 Кбит/с | Aнглийский
Релиз от: Koenig
скриншот   скриншот   скриншот   скриншот   скриншот   скриншот  

Общее
Уникальный идентификатор : 226942054489770602282935690950959361867 (0xAABB732899AB0800B8FB149531E2EF4B)
Полное имя : Beauty.and.the.Beast.The.Enchanted.Christmas.1997.BDRip-AVC.mkv
Формат : Matroska
Версия формата : Version 4 / Version 2
Размер файла : 1,45 Гбайт
Продолжительность : 1 ч. 10 м.
Общий поток : 2933 Кбит/сек
Дата кодирования : UTC 2017-12-19 14:29:43
Программа кодирования : mkvmerge v12.0.0 ('Trust / Lust') 32bit
Библиотека кодирования : libebml v1.3.4 + libmatroska v1.4.5
Обложка : Yes
Attachments : cover.jpg

Видео
Идентификатор : 1
Формат : AVC
Формат/Информация : Advanced Video Codec
Профиль формата : High@L4.1
Параметр CABAC формата : Да
Параметр ReFrames формата : 12 кадров
Идентификатор кодека : V_MPEG4/ISO/AVC
Продолжительность : 1 ч. 10 м.
Битрейт : 1842 Кбит/сек
Ширина : 1024 пикселя
Высота : 576 пикселей
Соотношение сторон : 16:9
Режим частоты кадров : Постоянный
Частота кадров : 23,976 (24000/1001) кадра/сек
Цветовое пространство : YUV
Субдискретизация насыщенности : 4:2:0
Битовая глубина : 8 бит
Тип развёртки : Прогрессивная
Бит/(Пиксели*Кадры) : 0.130
Размер потока : 932 Мбайт (63%)
Библиотека кодирования : x264 core 152 r2851 ba24899
Настройки программы : cabac=1 / ref=12 / deblock=1:-3:-3 / analyse=0x3:0x133 / me=umh / subme=10 / psy=1 / psy_rd=1.05:0.10 / mixed_ref=1 / me_range=32 / chroma_me=1 / trellis=2 / 8x8dct=1 / cqm=0 / deadzone=21,11 / fast_pskip=0 / chroma_qp_offset=-3 / threads=3 / lookahead_threads=1 / sliced_threads=0 / nr=0 / decimate=1 / interlaced=0 / bluray_compat=0 / constrained_intra=0 / bframes=14 / b_pyramid=2 / b_adapt=2 / b_bias=0 / direct=3 / weightb=1 / open_gop=0 / weightp=2 / keyint=240 / keyint_min=23 / scenecut=40 / intra_refresh=0 / rc_lookahead=40 / rc=2pass / mbtree=1 / bitrate=1842 / ratetol=1.0 / qcomp=0.60 / qpmin=10 / qpmax=51 / qpstep=4 / cplxblur=20.0 / qblur=0.5 / vbv_maxrate=50000 / vbv_bufsize=62500 / nal_hrd=none / filler=0 / ip_ratio=1.40 / aq=1:1.00
Default : Да
Forced : Нет

Аудио #1
Идентификатор : 2
Формат : AC-3
Формат/Информация : Audio Coding 3
Параметр Endianness формата : Big
Идентификатор кодека : A_AC3
Продолжительность : 1 ч. 10 м.
Вид битрейта : Постоянный
Битрейт : 192 Кбит/сек
Каналы : 2 канала
Расположение каналов : Front: L R
Частота : 48,0 КГц
Частота кадров : 31,250 кадров/сек (1536 spf)
Битовая глубина : 16 бит
Метод сжатия : С потерями
Размер потока : 97,1 Мбайт (7%)
Заголовок : DUB - Невафильм
Язык : Russian
ServiceKind/String : Complete Main
Default : Да
Forced : Нет

Аудио #2
Идентификатор : 3
Формат : AC-3
Формат/Информация : Audio Coding 3
Параметр Endianness формата : Big
Идентификатор кодека : A_AC3
Продолжительность : 1 ч. 10 м.
Вид битрейта : Постоянный
Битрейт : 448 Кбит/сек
Каналы : 6 каналов
Расположение каналов : Front: L C R, Side: L R, LFE
Частота : 48,0 КГц
Частота кадров : 31,250 кадров/сек (1536 spf)
Битовая глубина : 16 бит
Метод сжатия : С потерями
Размер потока : 227 Мбайт (15%)
Заголовок : MVO
Язык : Russian
ServiceKind/String : Complete Main
Default : Нет
Forced : Нет

Аудио #3
Идентификатор : 4
Формат : AC-3
Формат/Информация : Audio Coding 3
Параметр Endianness формата : Big
Идентификатор кодека : A_AC3
Продолжительность : 1 ч. 10 м.
Вид битрейта : Постоянный
Битрейт : 448 Кбит/сек
Каналы : 6 каналов
Расположение каналов : Front: L C R, Side: L R, LFE
Частота : 48,0 КГц
Частота кадров : 31,250 кадров/сек (1536 spf)
Битовая глубина : 16 бит
Метод сжатия : С потерями
Размер потока : 227 Мбайт (15%)
Язык : English
ServiceKind/String : Complete Main
Default : Нет
Forced : Нет

Текст #1
Идентификатор : 5
Формат : UTF-8
Идентификатор кодека : S_TEXT/UTF8
Идентификатор кодека/Информация : UTF-8 Plain Text
Продолжительность : 1 ч. 4 м.
Битрейт : 103 бит/сек
ElementCount : 869
Размер потока : 49,3 Кбайт (0%)
Язык : Russian
Default : Да
Forced : Нет

Текст #2
Идентификатор : 6
Формат : UTF-8
Идентификатор кодека : S_TEXT/UTF8
Идентификатор кодека/Информация : UTF-8 Plain Text
Продолжительность : 1 ч. 5 м.
Битрейт : 70 бит/сек
ElementCount : 1175
Размер потока : 33,5 Кбайт (0%)
Язык : English
Default : Нет
Forced : Нет

Меню
00:00:00.000 : en:01. Opening Credits / Remembering The Past
00:04:25.306 : en:02. A Date To Skate
00:10:17.158 : en:03. Belle's Gift
00:14:17.523 : en:04. Planning For Christmas
00:23:21.608 : en:05. The Curse Of The Beast
00:26:11.236 : en:06. F Yule Log Wish
00:29:25.263 : en:07. The Beast's Dilemma
00:33:53.156 : en:08. A Perfect Tree
00:39:17.563 : en:09. Where's Belle?
00:45:54.418 : en:10. The Black Forest
00:51:39.596 : en:11. A Gift Of Hope Brings Revenge
01:03:30.765 : en:12. Christmas At Last / End Credits

pb.wtf



Скачать Красавица и чудовище: Чудесное Рождество через торрент http://pic1.kartinco.top/images/11/awqad.jpg Скачать фильм Красавица и чудовище: Чудесное Рождество через торрент бесплантно в хорошем качестве Описание: Любовь Белл к чудовищу изменила все вокруг и теперь все заколдованные предметы в замке снова стали людьми, даже маленький Чип, ... 10 10 3
Торрент: Зарегистрирован [2017-12-20 17:21] · скачан: 340 раз
Статус: √ проверено
Размер: 1.45 GB
Как cкачать? Как скачать Красавица и чудовище: Чудесное Рождество через торрент | qTorrent

28-11-2019 20:33  

Отключить всю рекламу на сайте

    Дорогой пользователь! Огромная просьба, поблагодарите релизера, оцените раздачу и оставьте свои комментарий, если Вы скачали Красавица и чудовище: Чудесное Рождество через торрент бесплатно! Внесите свою лепту в развитие PiratBit!
    Комментировать посты могут только пользователи прошедшие не сложную регистрацию
    Показать сообщения:    

    Красавица и чудовище: Чудесное Рождество через торрент
    Скачать бесплатно Красавица и чудовище: Чудесное Рождество
    Красавица и чудовище: Чудесное Рождество скачать торрент
    Красавица и чудовище: Чудесное Рождество смотреть онлайн
    Cкачать фильм Красавица и чудовище: Чудесное Рождество бесплатно
    Красавица и чудовище: Чудесное Рождество скачать торрент в хорошем качестве
    Красавица и чудовище: Чудесное Рождество смотреть онлайн бесплатно в хорошем качестве


    Вы не можете начинать темы
    Вы не можете отвечать на сообщения
    Вы не можете редактировать свои сообщения
    Вы не можете удалять свои сообщения
    Вы не можете голосовать в опросах
    Вы не можете прикреплять файлы к сообщениям
    Вы можете скачивать файлы