Ссылка на приватное зеркало нашего сайта всего за 1$. Внимание количество ограничено!!!

2 сезон

iTunes

1 сезон

1

iTunes

iTunes

iTunes

1 сезон

RePack

30

ИГРА 18+

pack

ВАЖНО

!!Акция!!

Alien_RageХит недели

RePack

MK11
pack

Забери бонус

RePack

jed

!!Акция!!

Alien_Rage

RePack

fifa19

RePack

Assassins Creed: Odyssey

RePack

NEED FOR SPEED™ PAYBACK

4 сезон

9 сезон

Бесстыжие 9 сезон

Все сериалы

все сериалы на PB.wtf

RePack

FAR CRY 5
  

Двуличный любовник / L'amant double (Франсуа Озон) [2017, Триллер, драма, мелодрама, BDRip 720p] DUB [iTunes] pb.wtf

Двуличный любовник через торрент pb.wtf

Размер: 5.92 GB | Добавлен: 2 года 10 мес. назад | Торрент скачан:204 раза
Скачать  

21-12-2017 03:07 Двуличный любовник Скачать торрент  

Двуличный любовник / L'amant doubleГод выпуска: 2017
Страна: Франция, Бельгия
Жанр: Триллер, драма, мелодрама
Продолжительность: 01:47:58
Перевод: Дублированный | iTunes
Субтитры: Русские (full), английские

Режиссер: Франсуа Озон

rating

В ролях:

Марин Вакт, Жереми Ренье, Жаклин Биссет, Мириам Буайе, Доминик Реймон, Фанни Сэйдж, Жан-Эдуард Бодзяк, Антуан Де ла Мориньер, Жан-Поль Мюэль, Кейсли Готье

Описание:

Красивая женщина Хлоя страдает эмоциональным расстройством, неврозами, личной холодностью к любви и обращается за советом к психоаналитику. Вскоре он отказывает ей в помощи, мотивируя своё решение возникшими к ней чувствами. Хлоя ничего не знает из прошлого психоаналитика и пытается узнать, попадая в хоррор настоящего.

Качество: BDRip 720p
Формат: AVI
Видео кодек: XviD
Аудио кодек: AC3/DTS

Видео: MPEG-4 AVC, 1280x536, 5954 Kbit/s, 23.976 fps
Аудио#1: 48 kHz, AC3, 2.0, 384 Kbps | Дублированный | iTunes | RUS |
Аудио#2: 48 kHz, DTS, 5.1, 1510 Kbps | Оригинал | FRE |


Релиз от:
скриншот   скриншот   скриншот   скриншот   скриншот  

General
Unique ID : 312296778601811536255546755248444528912 (0xEAF22BF77267BB720466B6FE7939D910)
Complete name : G:VideoSSDL'amant.double.2017.BDRip.720p.ExKinoRay.mkv
Format : Matroska
Format version : Version 4 / Version 2
File size : 5.92 GiB
Duration : 1 h 48 min
Overall bit rate : 7 846 kb/s
Movie name : L'amant double 2017 from ExKinoRay
Encoded date : UTC 2017-12-20 21:21:56
Writing application : mkvmerge v19.0.0 ('Brave Captain') 64-bit
Writing library : libebml v1.3.5 + libmatroska v1.4.8

Video
ID : 1
Format : AVC
Format/Info : Advanced Video Codec
Format profile : High@L4.1
Format settings : CABAC / 12 Ref Frames
Format settings, CABAC : Yes
Format settings, ReFrames : 12 frames
Codec ID : V_MPEG4/ISO/AVC
Duration : 1 h 47 min
Bit rate : 5 954 kb/s
Width : 1 280 pixels
Height : 536 pixels
Display aspect ratio : 2.40:1
Frame rate mode : Constant
Frame rate : 23.976 (24000/1001) FPS
Color space : YUV
Chroma subsampling : 4:2:0
Bit depth : 8 bits
Scan type : Progressive
Bits/(Pixel*Frame) : 0.362
Stream size : 4.49 GiB (76%)
Writing library : x264 core 148 r2692+46 0f71ed5 7mod [8-bit@all X86_64]
Encoding settings : cabac=1 / ref=12 / deblock=1:-3:-3 / analyse=0x3:0x113 / me=umh / subme=11 / psy=1 / fade_compensate=0.00 / psy_rd=1.00:0.00 / mixed_ref=1 / me_range=32 / chroma_me=1 / trellis=2 / 8x8dct=1 / cqm=0 / deadzone=11,6 / fast_pskip=0 / chroma_qp_offset=-2 / threads=17 / lookahead_threads=2 / sliced_threads=0 / nr=0 / decimate=0 / interlaced=0 / bluray_compat=0 / constrained_intra=0 / fgo=0 / bframes=8 / b_pyramid=2 / b_adapt=2 / b_bias=0 / direct=3 / weightb=1 / open_gop=0 / weightp=2 / keyint=250 / keyint_min=23 / scenecut=40 / intra_refresh=0 / rc_lookahead=60 / rc=crf / mbtree=0 / crf=16.5000 / qcomp=0.60 / qpmin=0:0:0 / qpmax=32:32:32 / qpstep=4 / vbv_maxrate=40000 / vbv_bufsize=30000 / crf_max=0.0 / nal_hrd=none / filler=0 / ip_ratio=1.30 / pb_ratio=1.20 / aq=4:0.80 / aq-sensitivity=10.00 / aq-factor=1.00:1.00:1.00 / aq2=0 / aq3=0
Language : French
Default : Yes
Forced : No
Color range : Limited
Color primaries : BT.709
Transfer characteristics : BT.709
Matrix coefficients : BT.709

Audio #1
ID : 2
Format : AC-3
Format/Info : Audio Coding 3
Codec ID : A_AC3
Duration : 1 h 48 min
Bit rate mode : Constant
Bit rate : 384 kb/s
Channel(s) : 2 channels
Channel positions : Front: L R
Sampling rate : 48.0 kHz
Frame rate : 31.250 FPS (1536 SPF)
Bit depth : 16 bits
Compression mode : Lossy
Stream size : 297 MiB (5%)
Title : iTunes
Language : Russian
Service kind : Complete Main
Default : Yes
Forced : No

Audio #2
ID : 3
Format : DTS
Format/Info : Digital Theater Systems
Codec ID : A_DTS
Duration : 1 h 47 min
Bit rate mode : Constant
Bit rate : 1 509 kb/s
Channel(s) : 6 channels
Channel positions : Front: L C R, Side: L R, LFE
Sampling rate : 48.0 kHz
Frame rate : 93.750 FPS (512 SPF)
Bit depth : 24 bits
Compression mode : Lossy
Stream size : 1.14 GiB (19%)
Title : Original
Language : French
Default : No
Forced : No

Text #1
ID : 4
Format : UTF-8
Codec ID : S_TEXT/UTF8
Codec ID/Info : UTF-8 Plain Text
Duration : 1 h 42 min
Bit rate : 63 b/s
Count of elements : 1092
Stream size : 47.8 KiB (0%)
Title : Full
Language : Russian
Default : No
Forced : No

Text #2
ID : 5
Format : UTF-8
Codec ID : S_TEXT/UTF8
Codec ID/Info : UTF-8 Plain Text
Duration : 1 h 43 min
Bit rate : 37 b/s
Count of elements : 950
Stream size : 28.5 KiB (0%)
Title : Full
Language : English
Default : No
Forced : No

Menu
00:00:00.000 : en:Chapter 1
00:09:50.006 : en:Chapter 2
00:20:43.951 : en:Chapter 3
00:32:01.836 : en:Chapter 4
00:42:01.519 : en:Chapter 5
00:50:34.448 : en:Chapter 6
01:00:49.187 : en:Chapter 7
01:10:34.897 : en:Chapter 8
01:19:08.952 : en:Chapter 9
01:27:41.130 : en:Chapter 10
01:35:49.702 : en:Chapter 11
01:44:24.383 : en:Chapter 12

pb.wtf



Скачать Двуличный любовник через торрент http://s019.radikal.ru/i611/1712/23/b1e857508c0f.jpg Скачать фильм Двуличный любовник через торрент бесплантно в хорошем качестве Описание: Красивая женщина Хлоя страдает эмоциональным расстройством, неврозами, личной холодностью к любви и обращается за советом к ... 9 10 6
Торрент: Зарегистрирован [2017-12-21 03:07] · скачан: 204 раз
Статус: √ проверено
Размер: 5.92 GB
Как cкачать? Как скачать Двуличный любовник через торрент | qTorrent

28-11-2019 20:33  

Отключить всю рекламу на сайте

    Дорогой пользователь! Огромная просьба, поблагодарите релизера, оцените раздачу и оставьте свои комментарий, если Вы скачали Двуличный любовник через торрент бесплатно! Внесите свою лепту в развитие PiratBit!
    Комментировать посты могут только пользователи прошедшие не сложную регистрацию
    Показать сообщения:    

    Двуличный любовник через торрент
    Скачать бесплатно Двуличный любовник
    Двуличный любовник скачать торрент
    Двуличный любовник смотреть онлайн
    Cкачать фильм Двуличный любовник бесплатно
    Двуличный любовник скачать торрент в хорошем качестве
    Двуличный любовник смотреть онлайн бесплатно в хорошем качестве


    Вы не можете начинать темы
    Вы не можете отвечать на сообщения
    Вы не можете редактировать свои сообщения
    Вы не можете удалять свои сообщения
    Вы не можете голосовать в опросах
    Вы не можете прикреплять файлы к сообщениям
    Вы можете скачивать файлы