Ссылка на приватное зеркало всего за 1$. Внимание количество ограничено!!!

OK

1+1

iTunes

мы

OK

1

WEB-DLRip

Джокер

Пифагор

Ведьмак / The Witcher сериал

Лицензия

ПШазам

ОК

Оно 2

iTunes

30
pack

Вам бонус

ВАЖНО

!!Акция!!

Alien_RageХит недели

RePack

Resident Evil 21

ИГРА 18+

pack

RePack

jed

RePack

fifa19

RePack

Assassins Creed: Odyssey

RePack

NEED FOR SPEED™ PAYBACK

4 сезон

9 сезон

Бесстыжие 9 сезон

Все сериалы

все сериалы на PB.wtf

RePack

FAR CRY 5
  

Страсть и верность / Le Fidèle (Михаэль Р. Роскам) [2017, драма, криминал, WEB-DL 720p] MVO [официальный звук] pb.wtf

Страсть и верность через торрент pb.wtf

Размер: 4.1 GB | Добавлен: 2 года 1 мес. назад | Торрент скачан:121 раз
Скачать  

21-12-2017 06:34 Страсть и верность Скачать торрент  

Страсть и верность / Le FidèleГод выпуска: 2017
Страна: Бельгия, Франция, Нидерланды
Жанр: драма, криминал
Продолжительность: 02:10:58
Перевод: Профессиональный многоголосый [официальный звук]
Субтитры: отсутствуют

Режиссер: Михаэль Р. Роскам

rating

В ролях:

Маттиас Шонартс, Адель Экзаркопулос, Эрик Де Старке, Жан-Бенуа Югё, Тома Куман, Сэм Лаувейк, Стефаан Деган

Описание:

В жизни хладнокровного гангстера появляется молодая красивая гонщица из аристократического общества, лучшая в своем деле. Страсть вытесняет профессиональные интересы, но криминальное прошлое повсюду преследует их. События развиваются стремительно, ставя под угрозу жизни героев.

Качество: WEB-DL 720p
Формат: MKV
Видео кодек: H.264
Аудио кодек: AC3

Видео: 4093 Кбит/с, 1280x536
Аудио#1: Русский, (AC3, 6 ch, 384 Кбит/с)


скриншот  скриншот  скриншот  

Общее
Уникальный идентификатор : 224587426111396412619319427930189896231 (0xA8F5F7043744BA11B6C3B494C29A9A27)
Полное имя : D:\StrasT.i.VerNOst.2O17.O.WEB-DL.72Op_KOSHARA.mkv
Формат : Matroska
Версия формата : Version 2
Размер файла : 4,10 Гбайт
Продолжительность : 2 ч. 10 м.
Режим общего битрейта : Переменный
Общий поток : 4479 Кбит/сек
Дата кодирования : UTC 2017-12-20 22:38:51
Программа кодирования : mkvmerge v8.3.0 ('Over the Horizon') 64bit
Библиотека кодирования : libebml v1.3.1 + libmatroska v1.4.2

Видео
Идентификатор : 1
Формат : AVC
Формат/Информация : Advanced Video Codec
Профиль формата : High@L4.1
Параметр CABAC формата : Да
Параметр ReFrames формата : 12 кадров
Идентификатор кодека : V_MPEG4/ISO/AVC
Продолжительность : 2 ч. 10 м.
Вид битрейта : Переменный
Битрейт : 4093 Кбит/сек
Максимальный битрейт : 4500 Кбит/сек
Ширина : 1280 пикселей
Высота : 536 пикселей
Соотношение сторон : 2,40:1
Режим частоты кадров : Постоянный
Частота кадров : 24,000 кадра/сек
Стандарт вещания : Component
Цветовое пространство : YUV
Субдискретизация насыщенности : 4:2:0
Битовая глубина : 8 бит
Тип развёртки : Прогрессивная
Бит/(Пиксели*Кадры) : 0.243
Размер потока : 3,66 Гбайт (89%)
Default : Да
Forced : Нет
Цветовой диапазон : Limited
Основные цвета : BT.709
Характеристики трансфера : BT.709
Коэффициенты матрицы : BT.709

Аудио
Идентификатор : 2
Формат : AC-3
Формат/Информация : Audio Coding 3
Расширение режима : CM (complete main)
Параметр Endianness формата : Big
Идентификатор кодека : A_AC3
Продолжительность : 2 ч. 10 м.
Вид битрейта : Постоянный
Битрейт : 384 Кбит/сек
Каналы : 6 каналов
Расположение каналов : Front: L C R, Side: L R, LFE
Частота : 48,0 КГц
Частота кадров : 31,250 кадров/сек (1536 spf)
Метод сжатия : С потерями
Размер потока : 360 Мбайт (9%)
Default : Да
Forced : Нет

pb.wtf



Скачать Страсть и верность через торрент http://s019.radikal.ru/i642/1712/bd/3db65527acb1.jpg Скачать фильм Страсть и верность через торрент бесплантно в хорошем качестве Описание: В жизни хладнокровного гангстера появляется молодая красивая гонщица из аристократического общества, лучшая в своем деле. Страсть ... 8 10 6
Торрент: Зарегистрирован [2017-12-21 06:34] · скачан: 121 раз
Статус: T временная
Размер: 4.1 GB
Как cкачать? Как скачать Страсть и верность через торрент | qTorrent

% Раздел Тема Автор DL S | L
T Фильмы 2017 [DVDrip, WEB-DLRip, HDrip] (DUB, MVO) [ 2.18 GB ] Страсть и верность / Le Fidèle [2017 WEB-DLRip] MVO [официальный звук] Twi7ter Скачать
1 | 0
T Фильмы 2017 [DVDrip, WEB-DLRip, HDrip] (DUB, MVO) [ 1.46 GB ] Страсть и верность / Le Fidèle [2017 WEB-DLRip] MVO [официальный звук] Twi7ter Скачать
1 | 0
T Фильмы (мультфильмы) cо спонсором показа (Новинки AVI/MKV) [ 4.85 GB ] Страсть и верность / Le Fidèle [2017 WEB-DL 1080p] MVO [официальный звук] bober100 Скачать
1 | 0

28-11-2019 20:33  

Отключить всю рекламу на сайте

    Дорогой пользователь! Огромная просьба, поблагодарите релизера, оцените раздачу и оставьте свои комментарий, если Вы скачали Страсть и верность через торрент бесплатно! Внесите свою лепту в развитие PiratBit!
    Комментировать посты могут только пользователи прошедшие не сложную регистрацию
    Показать сообщения:    

    Страсть и верность через торрент
    Скачать бесплатно Страсть и верность
    Страсть и верность скачать торрент
    Страсть и верность смотреть онлайн
    Cкачать фильм Страсть и верность бесплатно
    Страсть и верность скачать торрент в хорошем качестве
    Страсть и верность смотреть онлайн бесплатно в хорошем качестве


    Вы не можете начинать темы
    Вы не можете отвечать на сообщения
    Вы не можете редактировать свои сообщения
    Вы не можете удалять свои сообщения
    Вы не можете голосовать в опросах
    Вы не можете прикреплять файлы к сообщениям
    Вы можете скачивать файлы