Всегда рабочее зеркало без VPN и Proxy просто перед .vidak.icu напиши любое слово или цифру, Пример http://h23n.vidak.icu

MVO

2 сезон

2 сезон

1

1 сезон

iTunes

2 сезон

13

1 сезон

Deluxe

pack

Рекомендуем

Пиратка

30

ВАЖНО

RePack

MK11

RePack

jed

RePack

fifa19

RePack

RDR2

RePack

NEED FOR SPEED™ PAYBACK

Кинопоиск HD

6 сезон

 Острые козырьки 6 сезон

Все сериалы

все сериалы на PB.wtf

RePack

FAR CRY 5

Anonymous, нам критически не хватает 5601 руб. на оплату серверов и переферии за Апрель, помоги нам пожалуйста, вся надежда только на тебя. В благодарность мы отключим тебе всю рекламу на сайте!

×
  
Magnet ссылка

Планета обезьян: Война / War for the Planet of the Apes (2017) (Мэтт Ривз) [2017 г., фантастика, боевик, приключения, BDRip 1080p, 60fps, Dub, VO, Original] pb.wtf

Планета обезьян: Война через торрент pb.wtf

Размер: 23.64 GB | Добавлен: 4 года 4 мес. назад | Торрент скачан:187 раз
Смотреть онлайн Планета обезьян: Война | Скачать    Ребята, помогите собрать деньги на оплату серверов!!!

21-12-2017 12:43 Планета обезьян: Война Скачать торрент  

Планета обезьян: Война / War for the Planet of the Apes
Год выпуска: 2017
Страна: США, Канада, Новая Зеландия
Жанр: фантастика, боевик, приключения
Продолжительность: 02:20:09
Перевод: Dub, VO, Original
Субтитры: Русские (forced, full), английские (full)
Режиссер: Мэтт Ривз
rating
В ролях: Энди Серкис, Вуди Харрельсон, Стив Зан, Карин Коновал, Амайя Миллер, Терри Нотари, Тай Олссон, Майкл Адамуэйт, Тоби Кеббелл, Гэбриел Чаварриа

Описание: Армию генетически модифицированных обезьян ожидает новый вызов: они вынуждены вступить в смертельную схватку с армией людей под руководством безжалостного полковника. После невообразимых потерь среди своих воинов вождь обезьян Цезарь начинает личную борьбу с темными инстинктами и собирается отомстить за весь свой вид. В конце концов он и полковник должны будут сойтись в эпической битве, которая решит, кто теперь будет править на Земле — люди или обезьяны.

Качество: BDRip 1080p 60fps
Формат: MKV
Видео: AVC, 1920x800 (2.40:1), 15000 kbps, 59.94 fps, 0,163 bpp
Аудио#1: DTS / 5.1 / 768 kbps / 24 bit | DUB - Blu-ray CEE
Аудио#2: DTS-HD Master Audio / 5.1 / 3558 kbps / 24 bit | VO Есарев (язык жестов озвучен)
Аудио#3: DTS-HD Master Audio / 7.1 / 4780 kbps / 24 bit | ENG

General
Unique ID : 189609547173688199908867670401829099119 (0x8EA578705A099A3DBF2C74922034D66F)
Complete name : D:\Торренты\Планета обезьян (2017) BDRip 1080p 60fps.mkv
Format : Matroska
Format version : Version 4 / Version 2
File size : 23.6 GiB
Duration : 2 h 20 min
Overall bit rate mode : Variable
Overall bit rate : 24.1 Mb/s
Movie name : War for the Planet of the Apes by Tiberiumsun69
Encoded date : UTC 2017-12-21 01:57:00
Writing application : mkvmerge v18.0.0 ('Apricity') 64-bit
Writing library : libebml v1.3.5 + libmatroska v1.4.8

Video
ID : 1
Format : AVC
Format/Info : Advanced Video Codec
Format profile : High@L4.2
Format settings : CABAC / 4 Ref Frames
Format settings, CABAC : Yes
Format settings, RefFrames : 4 frames
Codec ID : V_MPEG4/ISO/AVC
Duration : 2 h 20 min
Bit rate mode : Variable
Bit rate : 15.0 Mb/s
Maximum bit rate : 19.0 Mb/s
Width : 1 920 pixels
Height : 800 pixels
Display aspect ratio : 2.40:1
Frame rate mode : Constant
Frame rate : 59.940 (60000/1001) FPS
Standard : NTSC
Color space : YUV
Chroma subsampling : 4:2:0
Bit depth : 8 bits
Scan type : Progressive
Bits/(Pixel*Frame) : 0.163
Stream size : 14.7 GiB (62%)
Language : English
Default : Yes
Forced : No
Color range : Limited
Color primaries : BT.709
Transfer characteristics : BT.709
Matrix coefficients : BT.709

Audio #1
ID : 2
Format : DTS
Format/Info : Digital Theater Systems
Mode : 16
Format settings, Endianness : Big
Codec ID : A_DTS
Duration : 2 h 20 min
Bit rate mode : Constant
Bit rate : 768 kb/s
Channel(s) : 6 channels
Channel positions : Front: L C R, Side: L R, LFE
Sampling rate : 48.0 kHz
Frame rate : 93.750 FPS (512 SPF)
Bit depth : 24 bits
Compression mode : Lossy
Stream size : 770 MiB (3%)
Title : DTS (Дублированный)
Language : Russian
Default : Yes
Forced : No

Audio #2
ID : 3
Format : DTS
Format/Info : Digital Theater Systems
Format profile : MA / Core
Mode : 16
Format settings, Endianness : Big
Codec ID : A_DTS
Duration : 2 h 20 min
Bit rate mode : Variable / Constant
Bit rate : 3 550 kb/s / 1 509 kb/s
Channel(s) : 6 channels
Channel positions : Front: L C R, Side: L R, LFE
Sampling rate : 48.0 kHz
Frame rate : 93.750 FPS (512 SPF)
Bit depth : 24 bits
Compression mode : Lossless / Lossy
Stream size : 3.48 GiB (15%)
Title : DTS-HD Master Audio (Д. Есарев)
Language : Russian
Default : No
Forced : No

Audio #3
ID : 4
Format : DTS
Format/Info : Digital Theater Systems
Format profile : MA / ES Matrix / Core
Mode : 16
Format settings, Endianness : Big
Codec ID : A_DTS
Duration : 2 h 20 min
Bit rate mode : Variable / Constant / Constant
Bit rate : 4 780 kb/s / 1 509 kb/s / 1 509 kb/s
Channel(s) : 8 channels / 7 channels / 6 channels
Channel positions : Front: L C R, Side: L R, Back: L R, LFE / Front: L C R, Side: L R, Back: C, LFE / Front: L C R, Side: L R, LFE
Sampling rate : 48.0 kHz
Frame rate : 93.750 FPS (512 SPF)
Bit depth : 24 bits
Compression mode : Lossless / Lossy / Lossy
Stream size : 4.68 GiB (20%)
Title : DTS-HD Master Audio (Original)
Language : English
Default : No
Forced : No

Text #1
ID : 5
Format : UTF-8
Codec ID : S_TEXT/UTF8
Codec ID/Info : UTF-8 Plain Text
Duration : 2 h 18 min
Bit rate : 8 b/s
Count of elements : 220
Stream size : 8.96 KiB (0%)
Title : Forced
Language : Russian
Default : Yes
Forced : No

Text #2
ID : 6
Format : UTF-8
Codec ID : S_TEXT/UTF8
Codec ID/Info : UTF-8 Plain Text
Duration : 2 h 18 min
Bit rate : 28 b/s
Count of elements : 797
Stream size : 28.5 KiB (0%)
Title : Full
Language : Russian
Default : No
Forced : No

Text #3
ID : 7
Format : UTF-8
Codec ID : S_TEXT/UTF8
Codec ID/Info : UTF-8 Plain Text
Duration : 2 h 8 min
Bit rate : 16 b/s
Count of elements : 748
Stream size : 15.5 KiB (0%)
Title : Full
Language : English
Default : No
Forced : No

Menu
00:00:00.000 : en:00:00:00.000
00:05:05.889 : en:00:05:05.889
00:09:06.713 : en:00:09:06.713
00:12:14.108 : en:00:12:14.108
00:18:21.017 : en:00:18:21.017
00:25:04.503 : en:00:25:04.503
00:30:17.399 : en:00:30:17.399
00:34:13.093 : en:00:34:13.093
00:37:46.347 : en:00:37:46.347
00:42:54.447 : en:00:42:54.447
00:49:31.802 : en:00:49:31.802
00:54:14.626 : en:00:54:14.626
00:58:49.818 : en:00:58:49.818
01:05:24.129 : en:01:05:24.129
01:10:18.381 : en:01:10:18.381
01:14:53.823 : en:01:14:53.823
01:18:59.193 : en:01:18:59.193
01:25:35.672 : en:01:25:35.672
01:29:37.372 : en:01:29:37.372
01:34:22.824 : en:01:34:22.824
01:39:27.712 : en:01:39:27.712
01:43:48.222 : en:01:43:48.222
01:48:45.394 : en:01:48:45.394
01:55:20.580 : en:01:55:20.580
01:58:04.703 : en:01:58:04.703
02:02:33.930 : en:02:02:33.930
02:05:54.797 : en:02:05:54.797
02:12:51.213 : en:02:12:51.213

Авторская группа в ВК
pb.wtf



Скачать Планета обезьян: Война через торрент http://lostpix.com/img/2017-10/22/chcaglhxscjzagtazsagapxou.jpg Скачать, смотреть онлайн Планета обезьян: Война бесплантно в хорошем качестве Описание: Армию генетически модифицированных обезьян ожидает новый вызов: они вынуждены вступить в смертельную схватку с армией людей под ... 8.3 10 6
Info! Золотая раздача, скачанное не засчитывается.
Торрент: Зарегистрирован [2017-12-21 12:43] · скачан: 187 раз
Статус: √ проверено
Размер: 23.64 GB
Как cкачать? Как скачать Планета обезьян: Война через торрент | UTorrent

% Раздел Тема Автор DL S | L
Ultra HD (UHD: 2K, 4K, 8K) — видео сверхвысокой чёткости [ 50.8 GB ] Планета обезьян: Война / War for the Planet of the Apes [2017 UHD Blu-ray 2160p] DUB [] sheker187 Скачать
1 | 0
Ultra HD (UHD: 2K, 4K, 8K) — видео сверхвысокой чёткости [ 60.13 GB ] Планета обезьян: Война / War for the Planet of the Apes [2017 UHD BDRemux 2160p] DUB + 3xAVO sheker187 Скачать
1 | 0
Ultra HD (UHD: 2K, 4K, 8K) — видео сверхвысокой чёткости [ 43.6 GB ] Планета обезьян: Война / War for the Planet of the Apes [2017 UHD BDRemux 2160p] [] DUB+AVO [Д.Есарев] bober100 Скачать
1 | 0
Фильмы (Blu-ray, BD-Remux, HDDVD) [ 45.87 GB ] Планета обезьян: Война / War for the Planet of the Apes [2017 BDRemux 1080p] DUB + 3xAVO sheker187 Скачать
1 | 0
Фильмы 2017 [DVDrip, WEB-DLRip, HDrip] (DUB, MVO) [ 2.18 GB ] Планета обезьян: Война / War for the Planet of the Apes [2017 BDRip] - [] Twi7ter Скачать
1 | 0
Фильмы с авторской озвучкой [ 1.45 GB ] Планета обезьян: Война / War for the Planet of the Apes [2017 HDRip-AVC] [AVO] killermax2013 Скачать
1 | 0
Фильмы 2017 [DVDrip, WEB-DLRip, HDrip] (DUB, MVO) [ 2.18 GB ] Планета обезьян: Война / War for the Planet of the Apes [2017 HDRip] killermax2013 Скачать
1 | 0


Последний раз редактировалось: Tiberiumsun69 (2018-02-09 08:42), всего редактировалось 3 раз(а)

28-11-2019 20:33  

Отключить всю рекламу на сайте

21-12-2017 12:44 Планета обезьян: Война Скачать торрент  

Всем привет.И приятного просмотра.Пожалуйста оцените визуальную часть данного релиза (видео).Мне интересны ваши впечатления.

Приношу свои глубочайшие извинения за дорожки DTS-HD ma.Надеялся что он приемлем.Раздача была оформлена до того как сделали замечание.Впредь дорожки в рипах будут максимум в формате DTS.pb.wtf



    Дорогой пользователь! Огромная просьба, поблагодарите релизера, оцените раздачу и оставьте свои комментарий, если Вы скачали Планета обезьян: Война через торрент бесплатно!
    Комментировать посты могут только пользователи прошедшие не сложную регистрацию
    Показать сообщения:    

    Планета обезьян: Война через торрент
    Скачать бесплатно Планета обезьян: Война
    Планета обезьян: Война скачать торрент
    Планета обезьян: Война смотреть онлайн
    Cкачать фильм Планета обезьян: Война бесплатно
    Планета обезьян: Война скачать торрент в хорошем качестве
    Планета обезьян: Война смотреть онлайн бесплатно в хорошем качестве


    Вы не можете начинать темы
    Вы не можете отвечать на сообщения
    Вы не можете редактировать свои сообщения
    Вы не можете удалять свои сообщения
    Вы не можете голосовать в опросах
    Вы не можете прикреплять файлы к сообщениям
    Вы можете скачивать файлы