Ссылка на приватное зеркало нашего сайта всего за 1$. Внимание количество ограничено!!!

2 сезон

iTunes

iTunes

1

iTunes

iTunes

iTunes

WEBRip

iTunes

30
pack

Вам бонус

ВАЖНО

!!Акция!!

Alien_RageХит недели

RePack

Horizon Zero Dawn

ИГРА 18+

pack

RePack

jed

!!Акция!!

Alien_Rage

RePack

fifa19

RePack

Assassins Creed: Odyssey

RePack

NEED FOR SPEED™ PAYBACK

4 сезон

9 сезон

Бесстыжие 9 сезон

Все сериалы

все сериалы на PB.wtf

RePack

FAR CRY 5
  

Кровавый цирк / Blood Circus (Джейкоб Куни) [2017, боевик, WEB-DL 720p] MVO [@MUZOBOZ@] pb.wtf

Кровавый цирк через торрент pb.wtf

Размер: 2.85 GB | Добавлен: 2 года 9 мес. назад | Торрент скачан:50 раз
Скачать  

21-12-2017 19:38 Кровавый цирк Скачать торрент  

Кровавый цирк / Blood CircusГод выпуска: 2017
Страна: США
Жанр: боевик
Продолжительность: 01:27:50
Перевод: Любительский (многоголосый) [@MUZOBOZ@]
Субтитры: отсутствуют

Режиссер: Джейкоб Куни

rating

В ролях:

Джэми Ноше, Том Сайзмор, Роберт ЛаСардо, Чак Цито, Нана Гувеа, Кевин Нэш, Винсент Пасторе, Кристи Карлсон Романо, Том ДеНуччи, Джереми Фернандес

Описание:

Бывший чемпион боев ММА оказывается втянутым в бойцовский клуб под названием "Кровавый цирк", и ему приходится драться, чтобы остаться в живых и спасти своих родных.

Качество: WEB-DL 720p
Формат: MKV
Видео кодек: H.264
Аудио кодек: AC3

Видео: 4255 Kb/s, 1280x538
Аудио#1: Русский, (AC3, 2 ch, 384 Кбит/с)

скриншот   скриншот   скриншот  

Общее
Уникальный идентификатор : 184407229669939775683343235432020911369 (0x8ABB8A620713A4A2A49B9BDC311B2509)
Полное имя : D:\Blood.Circus.2017.P.WEB-DL.72Op.mkv
Формат : Matroska
Версия формата : Version 2
Размер файла : 2,85 Гбайт
Продолжительность : 1 ч. 27 м.
Режим общего битрейта : Переменный
Общий поток : 4640 Кбит/сек
Дата кодирования : UTC 2017-12-21 14:28:24
Программа кодирования : mkvmerge v8.3.0 ('Over the Horizon') 64bit
Библиотека кодирования : libebml v1.3.1 + libmatroska v1.4.2

Видео
Идентификатор : 1
Формат : AVC
Формат/Информация : Advanced Video Codec
Профиль формата : High@L4.1
Параметр CABAC формата : Да
Параметр ReFrames формата : 12 кадров
Идентификатор кодека : V_MPEG4/ISO/AVC
Продолжительность : 1 ч. 27 м.
Вид битрейта : Переменный
Битрейт : 4255 Кбит/сек
Максимальный битрейт : 4700 Кбит/сек
Ширина : 1280 пикселей
Высота : 538 пикселей
Соотношение сторон : 2,40:1
Режим частоты кадров : Постоянный
Частота кадров : 23,976 (24000/1001) кадра/сек
Стандарт вещания : Component
Цветовое пространство : YUV
Субдискретизация насыщенности : 4:2:0
Битовая глубина : 8 бит
Тип развёртки : Прогрессивная
Бит/(Пиксели*Кадры) : 0.252
Размер потока : 2,55 Гбайт (90%)
Default : Да
Forced : Нет
Цветовой диапазон : Limited
Основные цвета : BT.709
Характеристики трансфера : BT.709
Коэффициенты матрицы : BT.709

Аудио
Идентификатор : 2
Формат : AC-3
Формат/Информация : Audio Coding 3
Расширение режима : CM (complete main)
Параметр Endianness формата : Big
Идентификатор кодека : A_AC3
Продолжительность : 1 ч. 27 м.
Вид битрейта : Постоянный
Битрейт : 384 Кбит/сек
Каналы : 2 канала
Расположение каналов : Front: L R
Частота : 48,0 КГц
Частота кадров : 31,250 кадров/сек (1536 spf)
Метод сжатия : С потерями
Размер потока : 241 Мбайт (8%)
Default : Да
Forced : Нет

pb.wtf



Скачать Кровавый цирк через торрент http://s018.radikal.ru/i510/1712/0f/caac6174043b.jpg Скачать фильм Кровавый цирк через торрент бесплантно в хорошем качестве Описание: Бывший чемпион боев ММА оказывается втянутым в бойцовский клуб под названием "Кровавый цирк", и ему приходится драться, чтобы ... 9 10 3
Торрент: Зарегистрирован [2017-12-21 19:38] · скачан: 50 раз
Статус: T временная
Размер: 2.85 GB
Как cкачать? Как скачать Кровавый цирк через торрент | qTorrent

% Раздел Тема Автор DL S | L
Фильмы (WEB-DL 720p, 1080p) [ 3 GB ] Арена / Кровавый цирк / Blood Circus [2017 WEB-DL 1080p] MVO bober100 Скачать
1 | 0
Фильмы 2017 [DVDrip, WEB-DLRip, HDrip] (DUB, MVO) [ 1.46 GB ] Арена / Кровавый цирк / Blood Circus [2017 WEB-DLRip] MVO bober100 Скачать
1 | 0
Фильмы 2017 [DVDrip, WEB-DLRip, HDrip] (DUB, MVO) [ 744 MB ] Арена / Кровавый цирк / Blood Circus [2017 WEB-DLRip] MVO bober100 Скачать
1 | 0

28-11-2019 20:33  

Отключить всю рекламу на сайте

    Дорогой пользователь! Огромная просьба, поблагодарите релизера, оцените раздачу и оставьте свои комментарий, если Вы скачали Кровавый цирк через торрент бесплатно! Внесите свою лепту в развитие PiratBit!
    Комментировать посты могут только пользователи прошедшие не сложную регистрацию
    Показать сообщения:    

    Кровавый цирк через торрент
    Скачать бесплатно Кровавый цирк
    Кровавый цирк скачать торрент
    Кровавый цирк смотреть онлайн
    Cкачать фильм Кровавый цирк бесплатно
    Кровавый цирк скачать торрент в хорошем качестве
    Кровавый цирк смотреть онлайн бесплатно в хорошем качестве


    Вы не можете начинать темы
    Вы не можете отвечать на сообщения
    Вы не можете редактировать свои сообщения
    Вы не можете удалять свои сообщения
    Вы не можете голосовать в опросах
    Вы не можете прикреплять файлы к сообщениям
    Вы можете скачивать файлы