Ссылка на приватное зеркало всего за 1$. Внимание количество ограничено!!!

OK

1+1

iTunes

мы

OK

1

WEB-DLRip

Джокер

Пифагор

Ведьмак / The Witcher сериал

Лицензия

ПШазам

ОК

Оно 2

iTunes

30
pack

Вам бонус

ВАЖНО

!!Акция!!

Alien_RageХит недели

RePack

Resident Evil 21

ИГРА 18+

pack

RePack

jed

RePack

fifa19

RePack

Assassins Creed: Odyssey

RePack

NEED FOR SPEED™ PAYBACK

4 сезон

9 сезон

Бесстыжие 9 сезон

Все сериалы

все сериалы на PB.wtf

RePack

FAR CRY 5
  

Армия Шедвелла / ID2: Shadwell Army (Джоэль Новоа) [2016, боевик, BDRip 720p] MVO [официальный звук] pb.wtf

Армия Шедвелла через торрент pb.wtf

Размер: 3.88 GB | Добавлен: 2 года 1 мес. назад | Торрент скачан:35 раз
Скачать  

21-12-2017 19:52 Армия Шедвелла Скачать торрент  

Армия Шедвелла / ID2: Shadwell ArmyГод выпуска: 2016
Страна: Великобритания
Жанр: боевик
Продолжительность: 01:32:53
Перевод: Профессиональный многоголосый [официальный звук]
Субтитры: отсутствуют

Режиссер: Джоэль Новоа

rating

В ролях:

Саймон Нахал, Лайнас Роуч, Пол Попплуэлл, Энди Раш, Нил Пирсон, Ли Росс, Дункан Эйрли Джеймс, Кристина Тремарко, Перри Фенвик

Описание:

Молодой британский полицейский, внедрившийся в одну из банд, так вживается в образ, что перестает понимать, кто он есть на самом деле.

Качество: BDRip 720p
Формат: MKV
Видео кодек: H.264
Аудио кодек: AC3

Видео: 5528 Кбит/с, 1280x696
Аудио: Русский, (AC3, 2 ch, 448 Кбит/с)

скриншот  скриншот  скриншот  

Общее
Уникальный идентификатор : 217781016613744883519356206116886615252 (0xA3D7191E7E7296F0B5B85C74257514D4)
Полное имя : D:\Armiya.Shedvella.2016.P.BDRip.720p_KOSHARA.mkv
Формат : Matroska
Версия формата : Version 2
Размер файла : 3,88 Гбайт
Продолжительность : 1 ч. 32 м.
Режим общего битрейта : Переменный
Общий поток : 5977 Кбит/сек
Дата кодирования : UTC 2017-12-21 07:49:40
Программа кодирования : mkvmerge v8.3.0 ('Over the Horizon') 64bit
Библиотека кодирования : libebml v1.3.1 + libmatroska v1.4.2

Видео
Идентификатор : 1
Формат : AVC
Формат/Информация : Advanced Video Codec
Профиль формата : High@L4.1
Параметр CABAC формата : Да
Параметр ReFrames формата : 9 кадров
Идентификатор кодека : V_MPEG4/ISO/AVC
Продолжительность : 1 ч. 32 м.
Вид битрейта : Переменный
Битрейт : 5528 Кбит/сек
Максимальный битрейт : 6000 Кбит/сек
Ширина : 1280 пикселей
Высота : 696 пикселей
Соотношение сторон : 1,85:1
Режим частоты кадров : Постоянный
Частота кадров : 23,976 (24000/1001) кадра/сек
Стандарт вещания : Component
Цветовое пространство : YUV
Субдискретизация насыщенности : 4:2:0
Битовая глубина : 8 бит
Тип развёртки : Прогрессивная
Бит/(Пиксели*Кадры) : 0.253
Размер потока : 3,51 Гбайт (91%)
Default : Да
Forced : Нет
Цветовой диапазон : Limited
Основные цвета : BT.709
Характеристики трансфера : BT.709
Коэффициенты матрицы : BT.709

Аудио
Идентификатор : 2
Формат : AC-3
Формат/Информация : Audio Coding 3
Расширение режима : CM (complete main)
Параметр Endianness формата : Big
Идентификатор кодека : A_AC3
Продолжительность : 1 ч. 32 м.
Вид битрейта : Постоянный
Битрейт : 448 Кбит/сек
Каналы : 2 канала
Расположение каналов : Front: L R
Частота : 48,0 КГц
Частота кадров : 31,250 кадров/сек (1536 spf)
Метод сжатия : С потерями
Размер потока : 298 Мбайт (7%)
Default : Да
Forced : Нет

pb.wtf



Скачать Армия Шедвелла через торрент http://s019.radikal.ru/i642/1712/6f/3610dbd49f60.jpg Скачать фильм Армия Шедвелла через торрент бесплантно в хорошем качестве Описание: Молодой британский полицейский, внедрившийся в одну из банд, так вживается в образ, что перестает понимать, кто он есть на самом ... 10 10 4
Торрент: Зарегистрирован [2017-12-21 19:52] · скачан: 35 раз
Статус: T временная
Размер: 3.88 GB
Как cкачать? Как скачать Армия Шедвелла через торрент | qTorrent

% Раздел Тема Автор DL S | L
T Фильмы (мультфильмы) cо спонсором показа (Новинки AVI/MKV) [ 1.37 GB ] Армия Шедвелла / ID2: Shadwell Army [2016 HDRip] MVO [официальный звук] bober100 Скачать
1 | 0

28-11-2019 20:33  

Отключить всю рекламу на сайте

    Дорогой пользователь! Огромная просьба, поблагодарите релизера, оцените раздачу и оставьте свои комментарий, если Вы скачали Армия Шедвелла через торрент бесплатно! Внесите свою лепту в развитие PiratBit!
    Комментировать посты могут только пользователи прошедшие не сложную регистрацию
    Показать сообщения:    

    Армия Шедвелла через торрент
    Скачать бесплатно Армия Шедвелла
    Армия Шедвелла скачать торрент
    Армия Шедвелла смотреть онлайн
    Cкачать фильм Армия Шедвелла бесплатно
    Армия Шедвелла скачать торрент в хорошем качестве
    Армия Шедвелла смотреть онлайн бесплатно в хорошем качестве


    Вы не можете начинать темы
    Вы не можете отвечать на сообщения
    Вы не можете редактировать свои сообщения
    Вы не можете удалять свои сообщения
    Вы не можете голосовать в опросах
    Вы не можете прикреплять файлы к сообщениям
    Вы можете скачивать файлы