Ссылка на приватное зеркало нашего сайта всего за 1$. Внимание количество ограничено!!!

2 сезон

iTunes

1 сезон

1

iTunes

iTunes

iTunes

1 сезон

RePack

30

ИГРА 18+

pack

ВАЖНО

!!Акция!!

Alien_RageХит недели

RePack

MK11
pack

Забери бонус

RePack

jed

!!Акция!!

Alien_Rage

RePack

fifa19

RePack

Assassins Creed: Odyssey

RePack

NEED FOR SPEED™ PAYBACK

4 сезон

9 сезон

Бесстыжие 9 сезон

Все сериалы

все сериалы на PB.wtf

RePack

FAR CRY 5
  

Джиперс Криперс 3 / Jeepers Creepers 3 (Виктор Сальва) [2017, ужасы, триллер, детектив, BDRip 1080p] [DUB] [Лицензия / iTunes] pb.wtf

Джиперс Криперс 3 через торрент pb.wtf

Размер: 10.98 GB | Добавлен: 2 года 10 мес. назад | Торрент скачан:551 раз
Скачать  

21-12-2017 20:56 Джиперс Криперс 3 Скачать торрент  

Джиперс Криперс 3 / Jeepers Creepers 3
Год выхода: 2017
Жанр: ужасы, триллер, детектив
Страна: США
Продолжительность: 01:41:24
Перевод: Дубляж [Лицензия / iTunes]
Субтитры: Английские

Режиссер: Виктор Сальва

В ролях: Мег Фостер, Джина Филипс, Джонатан Брек, Стэн Шоу, Честер Рашинг, Дон Йессо, Габриэль Хоф, Кэрри Лазар, Майкл Пападжон, Джойс Жиро

Описание: Триш Дженнер воспитывает сына-подростка, которого она назвала Дэрри — в честь брата, погибшего в когтях чудовищного монстра. По ночам Триш видит один и тот же кошмар, в котором её сына ждёт та же участь, что и брата. Ведь каждую 23-ю весну просыпается зловещий монстр Джиперс Криперс и 23 дня, распространяя ужас и страх, рыскает по свету в поисках новых жертв. Время пробуждения приближается...



Файл
Качество: BDRip 1080p
Формат: MKV
Видео: MPEG-4 AVC, 13.6 Mбит/с, 1920x806, 23.976 fps
Звук: 48 kHz, AC3 Dolby Digital, 6 ch, ~384 kbps - DUB
Звук: 48 kHz, DTS, 6 ch, ~1509 kbps - ENG
General
Unique ID : 117946810119630448273826634772365170742 (0x58BBBAB661E78EBD4BEE8D59C573D836)
Complete name : G:\VideoSSD\Jeepers.Creepers.3.2017.BDRip.1080p.ExKinoRay.mkv
Format : Matroska
Format version : Version 4 / Version 2
File size : 11.0 GiB
Duration : 1 h 41 min
Overall bit rate : 15.5 Mb/s
Movie name : Jeepers Creepers 3 from ExKinoRay
Encoded date : UTC 2017-12-21 19:45:31
Writing application : mkvmerge v19.0.0 ('Brave Captain') 64-bit
Writing library : libebml v1.3.5 + libmatroska v1.4.8

Video
ID : 1
Format : AVC
Format/Info : Advanced Video Codec
Format profile : High@L4.1
Format settings : CABAC / 5 Ref Frames
Format settings, CABAC : Yes
Format settings, ReFrames : 5 frames
Codec ID : V_MPEG4/ISO/AVC
Duration : 1 h 41 min
Bit rate : 13.6 Mb/s
Width : 1 920 pixels
Height : 806 pixels
Display aspect ratio : 2.40:1
Frame rate mode : Constant
Frame rate : 23.976 (24000/1001) FPS
Color space : YUV
Chroma subsampling : 4:2:0
Bit depth : 8 bits
Scan type : Progressive
Bits/(Pixel*Frame) : 0.367
Stream size : 9.64 GiB (88%)
Writing library : x264 core 152 r2851+58 429492e t_mod_Custom [8-bit@all X86_64]
Encoding settings : cabac=1 / ref=5 / deblock=1:-3:-3 / analyse=0x3:0x133 / me=umh / subme=10 / psy=1 / fade_compensate=0.00 / psy_rd=1.00:0.00 / mixed_ref=1 / me_range=64 / chroma_me=1 / trellis=2 / 8x8dct=1 / cqm=0 / deadzone=21,11 / fast_pskip=0 / chroma_qp_offset=-2 / threads=24 / lookahead_threads=4 / sliced_threads=0 / nr=0 / decimate=0 / interlaced=0 / bluray_compat=0 / constrained_intra=0 / fgo=0 / bframes=8 / b_pyramid=2 / b_adapt=2 / b_bias=0 / direct=3 / weightb=1 / open_gop=0 / weightp=2 / keyint=250 / keyint_min=23 / scenecut=40 / intra_refresh=0 / rc_lookahead=60 / rc=crf / mbtree=0 / crf=16.9000 / qcomp=0.60 / qpmin=0:0:0 / qpmax=69:69:69 / qpstep=4 / vbv_maxrate=62500 / vbv_bufsize=78125 / crf_max=0.0 / nal_hrd=none / filler=0 / ip_ratio=1.30 / pb_ratio=1.20 / aq=3:0.78 / aq-sensitivity=10.00 / aq-factor=1.00:1.00:1.00 / aq2=0 / aq3=0 / zones=3377,3396,crf=15/4553,5021,crf=25/5225,5364,crf=15/79920,80152,crf=15/136175,145871,b=0.2
Language : English
Default : Yes
Forced : No

Audio #1
ID : 2
Format : AC-3
Format/Info : Audio Coding 3
Codec ID : A_AC3
Duration : 1 h 41 min
Bit rate mode : Constant
Bit rate : 384 kb/s
Channel(s) : 6 channels
Channel positions : Front: L C R, Side: L R, LFE
Sampling rate : 48.0 kHz
Frame rate : 31.250 FPS (1536 SPF)
Bit depth : 16 bits
Compression mode : Lossy
Stream size : 279 MiB (2%)
Title : iTunes
Language : Russian
Service kind : Complete Main
Default : Yes
Forced : No

Audio #2
ID : 3
Format : DTS
Format/Info : Digital Theater Systems
Codec ID : A_DTS
Duration : 1 h 41 min
Bit rate mode : Constant
Bit rate : 1 509 kb/s
Channel(s) : 6 channels
Channel positions : Front: L C R, Side: L R, LFE
Sampling rate : 48.0 kHz
Frame rate : 93.750 FPS (512 SPF)
Bit depth : 24 bits
Compression mode : Lossy
Stream size : 1.07 GiB (10%)
Title : Original
Language : English
Default : No
Forced : No

Text
ID : 4
Format : UTF-8
Codec ID : S_TEXT/UTF8
Codec ID/Info : UTF-8 Plain Text
Duration : 1 h 32 min
Bit rate : 32 b/s
Count of elements : 787
Stream size : 22.1 KiB (0%)
Title : Full
Language : English
Default : No
Forced : No

Menu
00:00:00.000 : en:00:00:00.000
00:14:29.952 : en:00:14:29.952
00:23:59.897 : en:00:23:59.897
00:34:26.606 : en:00:34:26.606
00:40:37.226 : en:00:40:37.226
00:47:02.278 : en:00:47:02.278
00:56:04.403 : en:00:56:04.403
01:03:25.135 : en:01:03:25.135
01:11:02.467 : en:01:11:02.467
01:21:46.902 : en:01:21:46.902
01:27:16.690 : en:01:27:16.690
01:34:43.553 : en:01:34:43.553
скриншот  скриншот  скриншот  
pb.wtf



Скачать Джиперс Криперс 3 через торрент http://img12.lostpic.net/2017/10/29/a359f38a4f0cec38c66cb80c8178bfb4.jpg Скачать фильм Джиперс Криперс 3 через торрент бесплантно в хорошем качестве Описание: Триш Дженнер воспитывает сына-подростка, которого она назвала Дэрри — в честь брата, погибшего в когтях чудовищного монстра. По ... 9.6 10 20
Info! Золотая раздача, скачанное не засчитывается.
Торрент: Зарегистрирован [2017-12-21 20:56] · скачан: 551 раз
Статус: √ проверено
Размер: 10.98 GB
Как cкачать? Как скачать Джиперс Криперс 3 через торрент | qTorrent

% Раздел Тема Автор DL S | L
Фильмы с авторской озвучкой [ 1.6 GB ] Джиперс Криперс 3 / Крылатый охотник 3 / Jeepers Creepers 3 [2017 BDRip] 2x[AVO] killermax2013 Скачать
1 | 0
Фильмы [HD 720p, 1080p] (Хороший звук DUB, MVO) [ 5 GB ] Джиперс Криперс 3 / Jeepers Creepers 3 [2017 BDRip 720p] bober100 Скачать
1 | 0
Фильмы 2017 [DVDrip, WEB-DLRip, HDrip] (DUB, MVO) [ 1.42 GB ] Джиперс Криперс 3 / Jeepers Creepers 3 [2017 BDRip] - Twi7ter Скачать
3 | 0
Фильмы (Blu-ray, BD-Remux, HDDVD) [ 19.13 GB ] Джиперс Криперс 3 / Jeepers Creepers 3 [2017 Blu-Ray Remux 1080p] killermax2013 Скачать
1 | 0

28-11-2019 20:33  

Отключить всю рекламу на сайте

22-12-2017 11:23 Джиперс Криперс 3 Скачать торрент  

а говорили бубняж 26 на айтюнсpb.wtf



22-12-2017 23:25 Джиперс Криперс 3 Скачать торрент  

Два раза пытался смотреть и засыпал,ну и туфтология,первые две части и то круче...pb.wtf



24-12-2017 17:18 Джиперс Криперс 3 Скачать торрент  

hohol270880 писал(а):

Два раза пытался смотреть и засыпал,ну и туфтология,первые две части и то круче...

Да уж, обосрали конкретно ситуацию! pb.wtf



27-12-2017 06:29 Джиперс Криперс 3 Скачать торрент  

ШЛАК!!!!pb.wtf



    Дорогой пользователь! Огромная просьба, поблагодарите релизера, оцените раздачу и оставьте свои комментарий, если Вы скачали Джиперс Криперс 3 через торрент бесплатно! Внесите свою лепту в развитие PiratBit!
    Комментировать посты могут только пользователи прошедшие не сложную регистрацию
    Показать сообщения:    

    Джиперс Криперс 3 через торрент
    Скачать бесплатно Джиперс Криперс 3
    Джиперс Криперс 3 скачать торрент
    Джиперс Криперс 3 смотреть онлайн
    Cкачать фильм Джиперс Криперс 3 бесплатно
    Джиперс Криперс 3 скачать торрент в хорошем качестве
    Джиперс Криперс 3 смотреть онлайн бесплатно в хорошем качестве


    Вы не можете начинать темы
    Вы не можете отвечать на сообщения
    Вы не можете редактировать свои сообщения
    Вы не можете удалять свои сообщения
    Вы не можете голосовать в опросах
    Вы не можете прикреплять файлы к сообщениям
    Вы можете скачивать файлы