Ссылка на приватное зеркало нашего сайта всего за 1$. Внимание количество ограничено!!!

2 сезон

iTunes

1 сезон

1

2 сезон

2 сезон

iTunes

1 сезон

RePack

30

Ultimate

ВАЖНО

ИГРА 18+

pack

RePack

MK11
pack

Забери бонус

RePack

jed

!!Акция!!

Alien_Rage

RePack

fifa19

RePack

Assassins Creed: Odyssey

RePack

NEED FOR SPEED™ PAYBACK

4 сезон

9 сезон

Бесстыжие 9 сезон

Все сериалы

все сериалы на PB.wtf

RePack

FAR CRY 5
  

Джиперс Криперс 3 / Jeepers Creepers 3 (Виктор Сальва) [2017, ужасы, триллер, детектив, Blu-Ray Remux 1080p] [DUB] [Лицензия / iTunes] pb.wtf

Джиперс Криперс 3 через торрент pb.wtf

Размер: 19.13 GB | Добавлен: 2 года 11 мес. назад | Торрент скачан:185 раз
Скачать  

21-12-2017 21:11 Джиперс Криперс 3 Скачать торрент  

Джиперс Криперс 3 / Jeepers Creepers 3
Год выхода: 2017
Жанр: ужасы, триллер, детектив
Страна: США
Продолжительность: 01:41:24
Перевод: Дубляж [Лицензия / iTunes]
Субтитры: Английские

Режиссер: Виктор Сальва

В ролях: Мег Фостер, Джина Филипс, Джонатан Брек, Стэн Шоу, Честер Рашинг, Дон Йессо, Габриэль Хоф, Кэрри Лазар, Майкл Пападжон, Джойс Жиро

Описание: Триш Дженнер воспитывает сына-подростка, которого она назвала Дэрри — в честь брата, погибшего в когтях чудовищного монстра. По ночам Триш видит один и тот же кошмар, в котором её сына ждёт та же участь, что и брата. Ведь каждую 23-ю весну просыпается зловещий монстр Джиперс Криперс и 23 дня, распространяя ужас и страх, рыскает по свету в поисках новых жертв. Время пробуждения приближается...



Файл
Качество: Blu-Ray Remux 1080p
Формат: MKV
Видео: MPEG-4 AVC, 24.9 Mбит/с, 1920x1080, 23.976 fps
Звук: 48 kHz, AC3 Dolby Digital, 6 ch, ~384 kbps - DUB
Звук: 48 kHz, DTS-HD MA, 6 ch, ~1731 kbps - ENG
General
Unique ID : 140649935985938372923851424106072251778 (0x69D0313D2368A23F4FA81FACFBB01D82)
Complete name : G:\VideoSSD\Jeepers.Creepers.3.2017.BDREMUX.1080p.ExKinoRay.mkv
Format : Matroska
Format version : Version 4 / Version 2
File size : 19.1 GiB
Duration : 1 h 41 min
Overall bit rate mode : Variable
Overall bit rate : 27.0 Mb/s
Movie name : Jeepers Creepers 3 from ExKinoRay
Encoded date : UTC 2017-12-21 19:57:51
Writing application : mkvmerge v19.0.0 ('Brave Captain') 64-bit
Writing library : libebml v1.3.5 + libmatroska v1.4.8

Video
ID : 1
Format : AVC
Format/Info : Advanced Video Codec
Format profile : High@L4.1
Format settings : CABAC / 4 Ref Frames
Format settings, CABAC : Yes
Format settings, ReFrames : 4 frames
Codec ID : V_MPEG4/ISO/AVC
Duration : 1 h 41 min
Bit rate mode : Variable
Bit rate : 24.9 Mb/s
Maximum bit rate : 38.0 Mb/s
Width : 1 920 pixels
Height : 1 080 pixels
Display aspect ratio : 16:9
Frame rate mode : Constant
Frame rate : 23.976 (24000/1001) FPS
Color space : YUV
Chroma subsampling : 4:2:0
Bit depth : 8 bits
Scan type : Progressive
Bits/(Pixel*Frame) : 0.501
Stream size : 17.6 GiB (92%)
Language : English
Default : Yes
Forced : No

Audio #1
ID : 2
Format : AC-3
Format/Info : Audio Coding 3
Codec ID : A_AC3
Duration : 1 h 41 min
Bit rate mode : Constant
Bit rate : 384 kb/s
Channel(s) : 6 channels
Channel positions : Front: L C R, Side: L R, LFE
Sampling rate : 48.0 kHz
Frame rate : 31.250 FPS (1536 SPF)
Bit depth : 16 bits
Compression mode : Lossy
Stream size : 279 MiB (1%)
Title : iTunes
Language : Russian
Service kind : Complete Main
Default : Yes
Forced : No

Audio #2
ID : 3
Format : DTS
Format/Info : Digital Theater Systems
Format profile : MA / Core
Codec ID : A_DTS
Duration : 1 h 41 min
Bit rate mode : Variable / Constant
Bit rate : 1 731 kb/s / 1 509 kb/s
Channel(s) : 6 channels
Channel positions : Front: L C R, Side: L R, LFE
Sampling rate : 48.0 kHz
Frame rate : 93.750 FPS (512 SPF)
Bit depth : 16 bits
Compression mode : Lossless / Lossy
Stream size : 1.23 GiB (6%)
Title : Original
Language : English
Default : No
Forced : No

Text
ID : 4
Format : UTF-8
Codec ID : S_TEXT/UTF8
Codec ID/Info : UTF-8 Plain Text
Duration : 1 h 32 min
Bit rate : 32 b/s
Count of elements : 787
Stream size : 22.1 KiB (0%)
Title : Full
Language : English
Default : No
Forced : No

Menu
00:00:00.000 : en:00:00:00.000
00:14:29.952 : en:00:14:29.952
00:23:59.897 : en:00:23:59.897
00:34:26.606 : en:00:34:26.606
00:40:37.226 : en:00:40:37.226
00:47:02.278 : en:00:47:02.278
00:56:04.403 : en:00:56:04.403
01:03:25.135 : en:01:03:25.135
01:11:02.467 : en:01:11:02.467
01:21:46.902 : en:01:21:46.902
01:27:16.690 : en:01:27:16.690
01:34:43.553 : en:01:34:43.553
скриншот  скриншот  скриншот  
pb.wtf



Скачать Джиперс Криперс 3 через торрент http://img12.lostpic.net/2017/10/29/a359f38a4f0cec38c66cb80c8178bfb4.jpg Скачать фильм Джиперс Криперс 3 через торрент бесплантно в хорошем качестве Описание: Триш Дженнер воспитывает сына-подростка, которого она назвала Дэрри — в честь брата, погибшего в когтях чудовищного монстра. По ... 9.4 10 9
Info! Золотая раздача, скачанное не засчитывается.
Торрент: Зарегистрирован [2017-12-21 21:11] · скачан: 185 раз
Статус: √ проверено
Размер: 19.13 GB
Как cкачать? Как скачать Джиперс Криперс 3 через торрент | qTorrent

% Раздел Тема Автор DL S | L
Фильмы с авторской озвучкой [ 1.6 GB ] Джиперс Криперс 3 / Крылатый охотник 3 / Jeepers Creepers 3 [2017 BDRip] 2x[AVO] killermax2013 Скачать
1 | 0
Фильмы [HD 720p, 1080p] (Хороший звук DUB, MVO) [ 5 GB ] Джиперс Криперс 3 / Jeepers Creepers 3 [2017 BDRip 720p] bober100 Скачать
1 | 0
Фильмы 2017 [DVDrip, WEB-DLRip, HDrip] (DUB, MVO) [ 1.42 GB ] Джиперс Криперс 3 / Jeepers Creepers 3 [2017 BDRip] - Twi7ter Скачать
2 | 0
Фильмы [HD 720p, 1080p] (Хороший звук DUB, MVO) [ 10.98 GB ] Джиперс Криперс 3 / Jeepers Creepers 3 [2017 BDRip 1080p] killermax2013 Скачать
1 | 0

28-11-2019 20:33  

Отключить всю рекламу на сайте

    Дорогой пользователь! Огромная просьба, поблагодарите релизера, оцените раздачу и оставьте свои комментарий, если Вы скачали Джиперс Криперс 3 через торрент бесплатно! Внесите свою лепту в развитие PiratBit!
    Комментировать посты могут только пользователи прошедшие не сложную регистрацию
    Показать сообщения:    

    Джиперс Криперс 3 через торрент
    Скачать бесплатно Джиперс Криперс 3
    Джиперс Криперс 3 скачать торрент
    Джиперс Криперс 3 смотреть онлайн
    Cкачать фильм Джиперс Криперс 3 бесплатно
    Джиперс Криперс 3 скачать торрент в хорошем качестве
    Джиперс Криперс 3 смотреть онлайн бесплатно в хорошем качестве


    Вы не можете начинать темы
    Вы не можете отвечать на сообщения
    Вы не можете редактировать свои сообщения
    Вы не можете удалять свои сообщения
    Вы не можете голосовать в опросах
    Вы не можете прикреплять файлы к сообщениям
    Вы можете скачивать файлы