Ссылка на приватное зеркало нашего сайта всего за 1$. Внимание количество ограничено!!!

2 сезон

iTunes

1 сезон

1

iTunes

iTunes

iTunes

1 сезон

RePack

30

ИГРА 18+

pack

ВАЖНО

!!Акция!!

Alien_RageХит недели

RePack

MK11
pack

Забери бонус

RePack

jed

!!Акция!!

Alien_Rage

RePack

fifa19

RePack

Assassins Creed: Odyssey

RePack

NEED FOR SPEED™ PAYBACK

4 сезон

9 сезон

Бесстыжие 9 сезон

Все сериалы

все сериалы на PB.wtf

RePack

FAR CRY 5
  

Валериан и город тысячи планет / Valerian and the City of a Thousand (Люк Бессон) [2017, Фантастика, фэнтези, боевик, приключения, BDRip 1080p] DUB [Лицензия] pb.wtf

Валериан и город тысячи планет через торрент pb.wtf

Раздают: 2 [ 0 KB/s ]
Размер: 11.21 GB | Добавлен: 2 года 10 мес. назад | Торрент скачан:643 раза
Скачать  

22-12-2017 01:54 Валериан и город тысячи планет Скачать торрент  

Валериан и город тысячи планет / Valerian and the City of a ThousandГод выпуска: 2017
Страна: Франция
Жанр: Фантастика, фэнтези,боевик, приключения
Продолжительность: 02:17:03
Перевод: Дубляж - [Лицензия]
Субтитры: Русские, английские
Режиссер: Люк Бессон

rating

В ролях:

Дэйн ДеХаан, Кара Делевинь, Клайв Оуэн, Рианна, Итэн Хоук, Херби Хэнкок, Крис У, Сэм Спруэлл, Ален Шаба, Рутгер Хауэр

Описание:

2700 год. Валериан и Лорелин — космические спецагенты, которые по долгу службы впутались в подозрительное дело и стали невольными участниками то ли межгалактического заговора, то ли аферы причудливых поселенцев планеты Альфа, прибывших туда из различных миров со всех уголков галактик.

Качество: BDRip 1080p
Формат: MKV
Видео кодек: H.264
Аудио кодек: AC3/DTS

Видео: MPEG-4 AVC, 8054 Kбит/с, 1920x804, 23.976 кадр/с
Аудио#1: Русский (AC3, 6 ch, 640 Кбит/с)
Аудио#2: Русский (DTS, 6 ch, 1509 Кбит/с)
Аудио#3: английский (DTS, 6 ch, 1509 Кбит/с)
скриншот   скриншот   скриншот   скриншот  

Общее
Уникальный идентификатор : 176646327769505870360651931471217393372 (0x84E4D8607396C4C9BFFA0F79492F7EDC)
Полное имя : D:ЗагрузкиValerian.And.The.City.Of.A.Thousand.Planets.2017.x264.BDRip.(1080p).OlLanDGroup.mkv
Формат : Matroska
Версия формата : Version 4 / Version 2
Размер файла : 11,2 Гбайт
Продолжительность : 2 ч. 17 м.
Общий поток : 11,7 Мбит/сек
Название фильма : Валериан и город тысячи планет.2017.Rip by: ollan
Дата кодирования : UTC 2017-12-21 23:06:22
Программа кодирования : mkvmerge v6.5.0 ('Isn't she lovely') built on Oct 20 2013 12:50:05
Библиотека кодирования : libebml v1.3.0 + libmatroska v1.4.1
Attachements : Cover - Valerian.And.The.City.Of.A.Thousand.Planets.png

Видео
Идентификатор : 1
Формат : AVC
Формат/Информация : Advanced Video Codec
Профиль формата : High@L4.1
Параметр CABAC формата : Да
Параметр ReFrames формата : 5 кадров
Идентификатор кодека : V_MPEG4/ISO/AVC
Продолжительность : 2 ч. 17 м.
Битрейт : 8054 Кбит/сек
Ширина : 1920 пикселей
Высота : 804 пикселя
Соотношение сторон : 2,40:1
Режим частоты кадров : Постоянный
Частота кадров : 23,976 (24000/1001) кадра/сек
Цветовое пространство : YUV
Субдискретизация насыщенности : 4:2:0
Битовая глубина : 8 бит
Тип развёртки : Прогрессивная
Бит/(Пиксели*Кадры) : 0.218
Размер потока : 7,49 Гбайт (67%)
Библиотека кодирования : x264 core 146 r2538 121396c
Настройки программы : cabac=1 / ref=5 / deblock=1:-3:-3 / analyse=0x3:0x133 / me=umh / subme=11 / psy=1 / psy_rd=0.95:0.05 / mixed_ref=1 / me_range=64 / chroma_me=1 / trellis=2 / 8x8dct=1 / cqm=0 / deadzone=21,11 / fast_pskip=0 / chroma_qp_offset=-3 / threads=12 / lookahead_threads=3 / sliced_threads=0 / nr=0 / decimate=0 / interlaced=0 / bluray_compat=0 / constrained_intra=0 / bframes=10 / b_pyramid=2 / b_adapt=2 / b_bias=0 / direct=3 / weightb=1 / open_gop=0 / weightp=2 / keyint=240 / keyint_min=23 / scenecut=40 / intra_refresh=0 / rc_lookahead=40 / rc=2pass / mbtree=0 / bitrate=8054 / ratetol=1.0 / qcomp=0.60 / qpmin=0 / qpmax=69 / qpstep=4 / cplxblur=20.0 / qblur=0.5 / vbv_maxrate=50000 / vbv_bufsize=62500 / nal_hrd=none / filler=0 / ip_ratio=1.40 / pb_ratio=1.30 / aq=1:1.00
Язык : English
Default : Да
Forced : Нет

Аудио #1
Идентификатор : 2
Формат : AC-3
Формат/Информация : Audio Coding 3
Расширение режима : CM (complete main)
Параметр Endianness формата : Big
Идентификатор кодека : A_AC3
Продолжительность : 2 ч. 17 м.
Вид битрейта : Постоянный
Битрейт : 640 Кбит/сек
Каналы : 6 каналов
Расположение каналов : Front: L C R, Side: L R, LFE
Частота : 48,0 КГц
Частота кадров : 31,250 кадров/сек (1536 spf)
Метод сжатия : С потерями
Размер потока : 627 Мбайт (5%)
Заголовок : Лицензия
Язык : Russian
Default : Да
Forced : Нет

Аудио #2
Идентификатор : 3
Формат : DTS
Формат/Информация : Digital Theater Systems
Режим : 16
Параметр Endianness формата : Big
Идентификатор кодека : A_DTS
Продолжительность : 2 ч. 17 м.
Вид битрейта : Постоянный
Битрейт : 1509 Кбит/сек
Каналы : 6 каналов
Расположение каналов : Front: L C R, Side: L R, LFE
Частота : 48,0 КГц
Частота кадров : 93,750 кадра/сек (512 spf)
Битовая глубина : 24 бит
Метод сжатия : С потерями
Размер потока : 1,44 Гбайт (13%)
Заголовок : Лицензия
Язык : Russian
Default : Нет
Forced : Нет

Аудио #3
Идентификатор : 4
Формат : DTS
Формат/Информация : Digital Theater Systems
Режим : 16
Параметр Endianness формата : Big
Идентификатор кодека : A_DTS
Продолжительность : 2 ч. 17 м.
Вид битрейта : Постоянный
Битрейт : 1509 Кбит/сек
Каналы : 6 каналов
Расположение каналов : Front: L C R, Side: L R, LFE
Частота : 48,0 КГц
Частота кадров : 93,750 кадра/сек (512 spf)
Битовая глубина : 24 бит
Метод сжатия : С потерями
Размер потока : 1,44 Гбайт (13%)
Язык : English
Default : Нет
Forced : Нет

Текст #1
Идентификатор : 5
Формат : UTF-8
Идентификатор кодека : S_TEXT/UTF8
Идентификатор кодека/Информация : UTF-8 Plain Text
Заголовок : Forced
Язык : Russian
Default : Да
Forced : Нет

Текст #2
Идентификатор : 6
Формат : UTF-8
Идентификатор кодека : S_TEXT/UTF8
Идентификатор кодека/Информация : UTF-8 Plain Text
Заголовок : Full
Язык : Russian
Default : Нет
Forced : Нет

Текст #3
Идентификатор : 7
Формат : UTF-8
Идентификатор кодека : S_TEXT/UTF8
Идентификатор кодека/Информация : UTF-8 Plain Text
Заголовок : Full
Язык : English
Default : Нет
Forced : Нет

Меню
00:00:00.000 : en:Chapter 01
00:12:35.712 : en:Chapter 02
00:17:29.589 : en:Chapter 03
00:23:35.788 : en:Chapter 04
00:32:45.838 : en:Chapter 05
00:41:19.143 : en:Chapter 06
00:47:15.666 : en:Chapter 07
00:56:12.411 : en:Chapter 08
01:04:25.695 : en:Chapter 09
01:11:27.908 : en:Chapter 10
01:20:25.069 : en:Chapter 11
01:28:13.704 : en:Chapter 12
01:35:53.914 : en:Chapter 13
01:41:35.046 : en:Chapter 14
01:53:37.853 : en:Chapter 15
02:02:22.585 : en:Chapter 16

x264 [info]: frame I:1816 Avg QP:15.08 size:201100
x264 [info]: frame P:52562 Avg QP:18.05 size: 75627
x264 [info]: frame B:142783 Avg QP:19.49 size: 27573
x264 [info]: consecutive B-frames: 5.2% 5.2% 14.9% 22.3% 19.4% 28.4% 2.9% 0.6% 0.4% 0.4% 0.3%
x264 [info]: mb I I16..4: 5.6% 86.8% 7.6%
x264 [info]: mb P I16..4: 1.7% 19.5% 1.3% P16..4: 29.9% 33.6% 8.8% 0.9% 0.0% skip: 4.2%
x264 [info]: mb B I16..4: 0.3% 1.6% 0.2% B16..8: 37.3% 21.5% 3.0% direct: 7.2% skip:29.0% L0:42.7% L1:44.6% BI:12.7%
x264 [info]: 8x8 transform intra:85.1% inter:63.0%
x264 [info]: direct mvs spatial:98.7% temporal:1.3%
x264 [info]: coded y,uvDC,uvAC intra: 85.1% 87.4% 65.3% inter: 30.8% 34.2% 12.9%
x264 [info]: i16 v,h,dc,p: 36% 11% 7% 46%
x264 [info]: i8 v,h,dc,ddl,ddr,vr,hd,vl,hu: 9% 7% 11% 10% 13% 13% 13% 12% 13%
x264 [info]: i4 v,h,dc,ddl,ddr,vr,hd,vl,hu: 30% 7% 11% 6% 11% 10% 10% 7% 9%
x264 [info]: i8c dc,h,v,p: 42% 23% 17% 17%
x264 [info]: Weighted P-Frames: Y:2.2% UV:1.5%
x264 [info]: ref P L0: 50.8% 9.9% 22.6% 7.9% 7.4% 1.4% 0.0%
x264 [info]: ref B L0: 78.8% 15.5% 4.3% 1.4%
x264 [info]: ref B L1: 93.6% 6.4%
x264 [info]: kb/s:8052.58
pb.wtf



Скачать Валериан и город тысячи планет через торрент http://s018.radikal.ru/i516/1712/33/041d2c25e95f.png Скачать фильм Валериан и город тысячи планет через торрент бесплантно в хорошем качестве Описание: 2700 год. Валериан и Лорелин — космические спецагенты, которые по долгу службы впутались в подозрительное дело и стали невольными ... 10 10 22
Info! Золотая раздача, скачанное не засчитывается.
Торрент: Зарегистрирован [2017-12-22 01:54] · скачан: 643 раз
Статус: √ проверено
Размер: 11.21 GB
Как cкачать? Как скачать Валериан и город тысячи планет через торрент | qTorrent

% Раздел Тема Автор DL S | L
Фильмы (HD 720p, 1080p) (48-60 fps) [ 5.92 GB ] Валериан и город тысячи планет / Valerian and the City of a Thousand Planets [2017 BDRip 720p 60 fps от еnvy / NNNB] NOR-Transfer | DUB еnvy Скачать
16 | 0
Фильмы 2017 [DVDrip, WEB-DLRip, HDrip] (DUB, MVO) [ 2.18 GB ] Валериан и город тысячи планет / Valerian and the City of a Thousand [2017 BDRip] [Локализованная версия] DUB [ BD RUS] bober100 Скачать
4 | 0
Фильмы 2017 [DVDrip, WEB-DLRip, HDrip] (DUB, MVO) [ 797 MB ] Валериан и город тысячи планет / Valerian and the City of a Thousand [2017 BDRip] [Локализованная версия] DUB [ BD RUS] bober100 Скачать
1 | 0
Ultra HD (UHD: 2K, 4K, 8K) — видео сверхвысокой чёткости [ 59.55 GB ] Валериан и город тысячи планет / Valerian and the City of a Thousand Planets [2017 UHD Blu-ray 2160p] - [] sheker187 Скачать
1 | 0
Ultra HD (UHD: 2K, 4K, 8K) — видео сверхвысокой чёткости [ 51.03 GB ] Валериан и город тысячи планет / Valerian and the City of a Thousand Planets [2017 UHD BDRemux 2160p] DUB [Dolby Vision] sheker187 Скачать
2 | 0
Ultra HD (UHD: 2K, 4K, 8K) — видео сверхвысокой чёткости [ 13.69 GB ] Валериан и город тысячи планет / Valerian and the City of a Thousand [2017 UHD BDRip-HEVC 2160p] DUB [] bober100 Скачать
1 | 0
Ultra HD (UHD: 2K, 4K, 8K) — видео сверхвысокой чёткости [ 71.15 GB ] Валериан и город тысячи планет / Valerian and the City of a Thousand [2017 UHD BD Remux 2160p] [Dolby Vision] 3xAVO+DUB +DUB [] bober100 Скачать
1 | 0

28-11-2019 20:33  

Отключить всю рекламу на сайте

19-10-2020 18:03 Валериан и город тысячи планет Скачать торрент  

скорости плзpb.wtf



    Дорогой пользователь! Огромная просьба, поблагодарите релизера, оцените раздачу и оставьте свои комментарий, если Вы скачали Валериан и город тысячи планет через торрент бесплатно! Внесите свою лепту в развитие PiratBit!
    Комментировать посты могут только пользователи прошедшие не сложную регистрацию
    Показать сообщения:    

    Валериан и город тысячи планет через торрент
    Скачать бесплатно Валериан и город тысячи планет
    Валериан и город тысячи планет скачать торрент
    Валериан и город тысячи планет смотреть онлайн
    Cкачать фильм Валериан и город тысячи планет бесплатно
    Валериан и город тысячи планет скачать торрент в хорошем качестве
    Валериан и город тысячи планет смотреть онлайн бесплатно в хорошем качестве


    Вы не можете начинать темы
    Вы не можете отвечать на сообщения
    Вы не можете редактировать свои сообщения
    Вы не можете удалять свои сообщения
    Вы не можете голосовать в опросах
    Вы не можете прикреплять файлы к сообщениям
    Вы можете скачивать файлы