Ссылка на приватное зеркало нашего сайта всего за 1$. Внимание количество ограничено!!!

2 сезон

iTunes

1 сезон

1

iTunes

iTunes

iTunes

1 сезон

RePack

30

ИГРА 18+

pack

ВАЖНО

!!Акция!!

Alien_RageХит недели

RePack

MK11
pack

Забери бонус

RePack

jed

!!Акция!!

Alien_Rage

RePack

fifa19

RePack

Assassins Creed: Odyssey

RePack

NEED FOR SPEED™ PAYBACK

4 сезон

9 сезон

Бесстыжие 9 сезон

Все сериалы

все сериалы на PB.wtf

RePack

FAR CRY 5
  

Прости, хочу на тебе жениться / Scusa ma ti voglio sposare (Федерико Моччиа) [2010, драма, мелодрама, комедия, BDRip 720p by msltel] DUB pb.wtf

Прости, хочу на тебе жениться через торрент pb.wtf

Размер: 4.6 GB | Добавлен: 2 года 10 мес. назад | Торрент скачан:52 раза
Скачать  

22-12-2017 07:26 Прости, хочу на тебе жениться Скачать торрент  

Название: Прости, хочу на тебе жениться
Оригинальное название: Scusa ma ti voglio sposare
Год выпуска: 2010
Страна: Италия
Жанр: драма, мелодрама, комедия
Продолжительность: 01:48:37
Перевод: дублированный

Режиссер: Федерико Моччиа
В ролях: Рауль Бова, Микела Кваттрочокке, Франческо Аполлони, Лука Анджелетти, Чечилия Дацци, Игнацио Олива, Франческа Ферраццо, Франческа Антонелли, Беатрис Валенте

О фильме: Алекс и Ники, несмотря на разницу в возрасте, решили пожениться. Но чем ближе день свадьбы, тем чаще у Ники возникают сомнения по поводу этого события. Да и женатые друзья Алекса не хотят, чтобы он «повесил себе на шею камень», как сделали они сами. Ведь семейная жизнь штука сложная и похожа на пазлы, которые нужно обдуманно складывать. Смогут ли Алекс и Ники решиться на такой поступок?... Фильм снят по мотивам романа Федерико Моччиа «Прости за любовь» (Scusa ma ti chiamo amore, 2007).



Качество: BDRip 720p
Формат: MKV
Видео: MPEG-4 AVC, 4787 Кбит/с, 1280x546
Аудио 1: русский, AC3, 640 kbps, 6 ch [дублированный]
Аудио 2: итальянский, AC3, 640 kbps, 6 ch, 48 kHz [оригинал]
Субтитры 1: русские
Неименованные главы/чаптеры.
Общее
Уникальный идентификатор : 253188715322110970002089923765197324406 (0xBE7A5F729269E5558A9A3C74B87BC076)
Полное имя : D:\Video\Прости, хочу на тебе жениться.2010.BDRip.720p by msltel.mkv
Формат : Matroska
Версия формата : Version 4 / Version 2
Размер файла : 4,60 Гбайт
Продолжительность : 1 ч. 48 м.
Общий поток : 6069 Кбит/сек
Название фильма : Rip by msltel
Дата кодирования : UTC 2017-12-21 15:28:10
Программа кодирования : mkvmerge v8.2.0 ('World of Adventure') 64bit
Библиотека кодирования : libebml v1.3.1 + libmatroska v1.4.2

Видео
Идентификатор : 1
Формат : AVC
Формат/Информация : Advanced Video Codec
Профиль формата : High@L4.1
Настройки формата : CABAC / 9 Ref Frames
Параметр CABAC формата : Да
Параметр RefFrames формата : 9 кадров
Идентификатор кодека : V_MPEG4/ISO/AVC
Продолжительность : 1 ч. 48 м.
Битрейт : 4787 Кбит/сек
Ширина : 1280 пикселей
Высота : 546 пикселей
Соотношение сторон : 2,35:1
Режим частоты кадров : Постоянный
Частота кадров : 24,000 кадра/сек
Цветовое пространство : YUV
Субдискретизация насыщенности : 4:2:0
Битовая глубина : 8 бит
Тип развёртки : Прогрессивная
Бит/(Пиксели*Кадры) : 0.285
Размер потока : 3,63 Гбайт (79%)
Библиотека кодирования : x264 core 146 r2538 121396c
Настройки программы : cabac=1 / ref=9 / deblock=1:-3:-2 / analyse=0x3:0x113 / me=umh / subme=11 / psy=1 / psy_rd=1.00:0.15 / mixed_ref=1 / me_range=32 / chroma_me=1 / trellis=2 / 8x8dct=1 / cqm=0 / deadzone=21,11 / fast_pskip=0 / chroma_qp_offset=-3 / threads=6 / lookahead_threads=1 / sliced_threads=0 / nr=0 / decimate=1 / interlaced=0 / bluray_compat=0 / constrained_intra=0 / bframes=9 / b_pyramid=2 / b_adapt=2 / b_bias=0 / direct=1 / weightb=1 / open_gop=0 / weightp=2 / keyint=230 / keyint_min=23 / scenecut=40 / intra_refresh=0 / rc_lookahead=40 / rc=crf / mbtree=0 / crf=19.8 / qcomp=0.60 / qpmin=0 / qpmax=69 / qpstep=4 / vbv_maxrate=62500 / vbv_bufsize=78125 / crf_max=0.0 / nal_hrd=none / filler=0 / ip_ratio=1.40 / pb_ratio=1.30 / aq=1:1.00
Язык : Italian
Default : Да
Forced : Нет

Аудио #1
Идентификатор : 2
Формат : AC-3
Формат/Информация : Audio Coding 3
Идентификатор кодека : A_AC3
Продолжительность : 1 ч. 48 м.
Вид битрейта : Постоянный
Битрейт : 640 Кбит/сек
Каналы : 6 каналов
Расположение каналов : Front: L C R, Side: L R, LFE
Частота : 48,0 КГц
Частота кадров : 31,250 кадров/сек (1536 SPF)
Битовая глубина : 16 бит
Метод сжатия : С потерями
Размер потока : 497 Мбайт (11%)
Заголовок : DUB
Язык : Russian
ServiceKind/String : Complete Main
Default : Да
Forced : Нет

Аудио #2
Идентификатор : 3
Формат : AC-3
Формат/Информация : Audio Coding 3
Идентификатор кодека : A_AC3
Продолжительность : 1 ч. 48 м.
Вид битрейта : Постоянный
Битрейт : 640 Кбит/сек
Каналы : 6 каналов
Расположение каналов : Front: L C R, Side: L R, LFE
Частота : 48,0 КГц
Частота кадров : 31,250 кадров/сек (1536 SPF)
Битовая глубина : 16 бит
Метод сжатия : С потерями
Размер потока : 497 Мбайт (11%)
Заголовок : original
Язык : Italian
ServiceKind/String : Complete Main
Default : Нет
Forced : Нет

Текст
Идентификатор : 4
Формат : UTF-8
Идентификатор кодека : S_TEXT/UTF8
Идентификатор кодека/Информация : UTF-8 Plain Text
Продолжительность : 1 ч. 46 м.
Битрейт : 141 бит/сек
ElementCount : 1727
Размер потока : 111 Кбайт (0%)
Заголовок : русские
Язык : Russian
Default : Нет
Forced : Нет

Меню
00:00:00.000 : :Chapter 01
00:08:40.875 : :Chapter 02
00:15:58.209 : :Chapter 03
00:23:57.875 : :Chapter 04
00:31:42.875 : :Chapter 05
00:38:59.375 : :Chapter 06
00:45:47.042 : :Chapter 07
00:53:18.750 : :Chapter 08
01:01:13.292 : :Chapter 09
01:08:37.750 : :Chapter 10
01:16:25.459 : :Chapter 11
01:24:03.334 : :Chapter 12
01:30:43.000 : :Chapter 13
01:38:05.125 : :Chapter 14
01:43:00.459 : :Chapter 15
pb.wtf



Скачать Прости, хочу на тебе жениться через торрент http://d.radikal.ru/d01/1712/59/5c1b47761523.jpg Скачать фильм Прости, хочу на тебе жениться через торрент бесплантно в хорошем качестве О фильме: Алекс и Ники, несмотря на разницу в возрасте, решили пожениться. Но чем ближе день свадьбы, тем чаще у Ники возникают сомнения по ... 5 10 1
Info! Золотая раздача, скачанное не засчитывается.
Торрент: Зарегистрирован [2017-12-22 07:26] · скачан: 52 раз
Статус: √ проверено
Размер: 4.6 GB
Как cкачать? Как скачать Прости, хочу на тебе жениться через торрент | qTorrent

% Раздел Тема Автор DL S | L
Фильмы [HD 720p, 1080p] (Хороший звук DUB, MVO) [ 11.17 GB ] Прости хочу на тебе жениться / Scusa ma ti voglio sposare [2010 BDRip 1080p by msltel] DUB msltel Скачать
1 | 0
Фильмы 2010 [ 746 MB ] Прости хочу на тебе жениться / Scusa ma ti voglio sposare [2010 Италия DVDRip] DUB -=Cherry=- Скачать
1 | 0

28-11-2019 20:33  

Отключить всю рекламу на сайте

    Дорогой пользователь! Огромная просьба, поблагодарите релизера, оцените раздачу и оставьте свои комментарий, если Вы скачали Прости, хочу на тебе жениться через торрент бесплатно! Внесите свою лепту в развитие PiratBit!
    Комментировать посты могут только пользователи прошедшие не сложную регистрацию
    Показать сообщения:    

    Прости, хочу на тебе жениться через торрент
    Скачать бесплатно Прости, хочу на тебе жениться
    Прости, хочу на тебе жениться скачать торрент
    Прости, хочу на тебе жениться смотреть онлайн
    Cкачать фильм Прости, хочу на тебе жениться бесплатно
    Прости, хочу на тебе жениться скачать торрент в хорошем качестве
    Прости, хочу на тебе жениться смотреть онлайн бесплатно в хорошем качестве


    Вы не можете начинать темы
    Вы не можете отвечать на сообщения
    Вы не можете редактировать свои сообщения
    Вы не можете удалять свои сообщения
    Вы не можете голосовать в опросах
    Вы не можете прикреплять файлы к сообщениям
    Вы можете скачивать файлы