новый адрес
Мега распродажа FORZA HORIZON 4 ULTIMATE+ВСЕ DLC+ОНЛАЙН всего за 499р. 349 руб. (супер цена). Внимание количество ограничено!!!

iTunes

1+1

iTunes

мы

iTunes

1

iTunes

Чернобыль

iTunes

Ральф против интернета

Лицензия

ПШазам

Лицензия

Игра престолов

Лицензия

30
pack

ВАЖНО

!!Акция!!

Alien_RageХит недели

RePack

Resident Evil 21

ИГРА 18+

pack

RePack

Metro:Exodus

!!Акция!!

Alien_Rage

RePack

fifa19

RePack

Assassins Creed: Odyssey

RePack

NEED FOR SPEED™ PAYBACK

3 сезон

9 сезон

Бесстыжие 9 сезон

Все сериалы

все сериалы на PB.wtf

RePack

FAR CRY 5
Ребята, катастрофически не хватает 1900р. для оплаты серверов за Октябрь (всвязи с блокировками трафик упал в 3 раза), 1-2р., выручайте.
  

В этот праздничный вечер (Герман Ливанов, Фахри Мустафаев) [1959, СССР, музыкальный фильм, SATRip от AVP Studio] pb.wtf

В этот праздничный вечер через торрент pb.wtf

Размер: 1.46 GB | Добавлен: 1 год 10 мес. назад | Торрент скачан:24 раза
Скачать  

22-12-2017 09:50 В этот праздничный вечер Скачать торрент  

В этот праздничный вечер
Страна: СССР
Производство: Центральное телевидение

Жанр: музыкальный фильм
Год выпуска: 1959
Продолжительность: 01:59:44

Перевод: Не требуется
Cубтитры: нет
Оригинальная аудиодорожка: русский

Режиссер: Герман Ливанов, Фахри Мустафаев

В ролях:
Татьяна Пельтцер, Илья Набатов, Юрий Тимошенко, Ефим Березин, Лидия Драновская, Юрий Саранцев, Евгений Леонов, Павел Самарин, Николай Хрящиков, Элеонора Власова, Юрий Кузнецов, Георг Отс, Гоарина Гаспарян, Кола Бельды, Рашид Бейбутов, Ермек Серкебаев, Роза Гордеева, Галия Измайлова, Нэлли Гусева...
Об актёрах подробней

Описание:
Музыкальный фильм-обозрение. В праздничный первомайский вечер 1959 года зрители вместе с авторами фильма пройдутся по Москве, по ее улицам и плошадям, встретятся с любимыми артистами. И увидят как радостно встречают москвичи праздник Весны!

Исходник: DVB
Качество видео: SATRip
Формат видео: AVI

Видео: 704x528 (4:3), 25 fps, XviD ~ 1544 kbps avg, 0.166 bit/pixel
Аудио: 48 kHz, Dolby Digital AC3 2.0, 192 kbps

Раздача от:
Общее
Полное имя : V.yetot.prazdnichnyy.vecher.1959.SATRip_[New-team]_by_AVP_Studio.avi
Формат : AVI
Формат/Информация : Audio Video Interleave
Размер файла : 1,46 Гбайт
Продолжительность : 1 ч. 59 м.
Общий поток : 1746 Кбит/сек
Программа кодирования : VirtualDubMod 1.5.10.3 | www.virtualdub-fr.org || (build 2550/release)
Библиотека кодирования : VirtualDubMod build 2550/release

Видео
Идентификатор : 0
Формат : MPEG-4 Visual
Профиль формата : Advanced Simple@L5
Настройки формата : BVOP1 / Custom Matrix
Параметр BVOP формата : 1
Параметр QPel формата : Нет
Параметр GMC формата : Без точки перехода
Параметр матрицы формата : Выборочная
Идентификатор кодека : XVID
Идентификатор кодека/Подсказка : XviD
Продолжительность : 1 ч. 59 м.
Битрейт : 1544 Кбит/сек
Ширина : 704 пикселя
Высота : 528 пикселей
Соотношение сторон : 4:3
Частота кадров : 25,000 кадров/сек
Цветовое пространство : YUV
Субдискретизация насыщенности : 4:2:0
Битовая глубина : 8 бит
Тип развёртки : Прогрессивная
Метод сжатия : С потерями
Бит/(Пиксели*Кадры) : 0.166
Размер потока : 1,29 Гбайт (88%)
Библиотека кодирования : XviD 73

Аудио
Идентификатор : 1
Формат : AC-3
Формат/Информация : Audio Coding 3
Идентификатор кодека : 2000
Продолжительность : 1 ч. 59 м.
Вид битрейта : Постоянный
Битрейт : 192 Кбит/сек
Каналы : 2 канала
Расположение каналов : Front: L R
Частота : 48,0 КГц
Частота кадров : 31,250 кадров/сек (1536 SPF)
Битовая глубина : 16 бит
Метод сжатия : С потерями
Размер потока : 164 Мбайт (11%)
Выравнивание : Разделение по промежуткам
Продолжительность промежутка : 40 мс. (1,00 видеокадр)
Время предзагрузки промежутка : 500 мс
pb.wtf



Скачать В этот праздничный вечер через торрент http://d.radikal.ru/d08/1712/d6/8bdd9ca22337.png Скачать фильм В этот праздничный вечер через торрент бесплантно в хорошем качестве Описание:Музыкальный фильм-обозрение. В праздничный первомайский вечер 1959 года зрители вместе с авторами фильма пройдутся по Москве, по ... 5 10 1
Info! Золотая раздача, скачанное не засчитывается.
Торрент: Зарегистрирован [2017-12-22 09:50] · скачан: 24 раз
Статус: √ проверено
Размер: 1.46 GB
Как cкачать? Как скачать В этот праздничный вечер через торрент | qTorrent

% Раздел Тема Автор DL S | L
Кино СССР [ 1.46 GB ] В этот праздничный вечер [1959 СССР музыкальный фильм SATRip-AVC от AVP Studio] AVP Studio Скачать
1 | 0


>> Регистрируемся здесь <<






Отзывы и комментарии о схеме читаем и пишем здесь: ---> Отзывы и комментарии о схеме

Новые благодарочки в телеграм довольных пользователей:
скриншот   скриншот   скриншот   скриншот   скриншот
    Дорогой пользователь! Огромная просьба, поблагодарите релизера, оцените раздачу и оставьте свои комментарий, если Вы скачали В этот праздничный вечер через торрент бесплатно! Внесите свою лепту в развитие PiratBit!
    Комментировать посты могут только пользователи прошедшие не сложную регистрацию
    Показать сообщения:    

    В этот праздничный вечер через торрент
    Скачать бесплатно В этот праздничный вечер
    В этот праздничный вечер скачать торрент
    В этот праздничный вечер смотреть онлайн
    Cкачать фильм В этот праздничный вечер бесплатно
    В этот праздничный вечер скачать торрент в хорошем качестве
    В этот праздничный вечер смотреть онлайн бесплатно в хорошем качестве


    Вы не можете начинать темы
    Вы не можете отвечать на сообщения
    Вы не можете редактировать свои сообщения
    Вы не можете удалять свои сообщения
    Вы не можете голосовать в опросах
    Вы не можете прикреплять файлы к сообщениям
    Вы можете скачивать файлы