Ссылка на приватное зеркало нашего сайта всего за 1$. Внимание количество ограничено!!!

2 сезон

iTunes

1 сезон

1

iTunes

iTunes

iTunes

1 сезон

RePack

30

ИГРА 18+

pack

ВАЖНО

!!Акция!!

Alien_RageХит недели

RePack

MK11
pack

Забери бонус

RePack

jed

!!Акция!!

Alien_Rage

RePack

fifa19

RePack

Assassins Creed: Odyssey

RePack

NEED FOR SPEED™ PAYBACK

4 сезон

9 сезон

Бесстыжие 9 сезон

Все сериалы

все сериалы на PB.wtf

RePack

FAR CRY 5
  

Три в одном 2 / Серии: 1-2 из 2 (Илья Хотиненко) [2017 г., Детектив, SATRip] pb.wtf

Три в одном 2 через торрент pb.wtf

Размер: 1.37 GB | Добавлен: 2 года 10 мес. назад | Торрент скачан:106 раз
Скачать  

22-12-2017 10:51 Три в одном 2 Скачать торрент  

Три в одном 2
Год выпуска: 2017
Страна: Россия
Жанр: Детектив
Продолжительность: 01:41:30
Субтитры: Нет
Примечание: две серии одним файлом

Режиссер: Илья Хотиненко

В ролях: Наталья Рычкова, Александр Ратников, Андрей Карако, Артем Семакин, Валентина Лосовская

Описание: Новый клиент агентства расставаний и встреч "Новая жизнь" внезапно становится пылким поклонником самой хозяйки агентства Инги Хвостиковой. Она всеми силами пытается избавиться от навязчивого ухажера. Но его внезапная гибель приводит Ингу в неописуемый ужас: в смерти этого человека может быть замешан один из ее бывших мужей, к которым она успела обратиться за помощью...

Качество: SATRip
Формат: AVI
Видео кодек: XviD
Аудио кодек: MP3
Видео: 720x400 (1.80:1), 25 fps, XviD build 50 ~1790 kbps
Аудио#1: 48 kHz, MPEG Layer 3, 2 ch, ~128.00 kbps
скриншот   скриншот   скриншот   скриншот  

General
Complete name : H:\релизы.торрентфайл\Tri.v.odnom.2.SATRip.[www.riperam.org].avi
Format : AVI
Format/Info : Audio Video Interleave
File size : 1.37 GiB
Duration : 1h 41mn
Overall bit rate : 1 929 Kbps
Writing application : VirtualDubMod 1.5.10.3 | www.virtualdub-fr.org || (build 2550/release)
Writing library : VirtualDubMod build 2550/release

Video
ID : 0
Format : MPEG-4 Visual
Format profile : Advanced Simple@L5
Format settings, BVOP : 2
Format settings, QPel : No
Format settings, GMC : No warppoints
Format settings, Matrix : Default (H.263)
Codec ID : XVID
Codec ID/Hint : XviD
Duration : 1h 41mn
Bit rate : 1 791 Kbps
Width : 720 pixels
Height : 400 pixels
Display aspect ratio : 16:9
Frame rate : 25.000 fps
Color space : YUV
Chroma subsampling : 4:2:0
Bit depth : 8 bits
Scan type : Progressive
Compression mode : Lossy
Bits/(Pixel*Frame) : 0.249
Stream size : 1.27 GiB (93%)
Writing library : XviD 1.2.1 (UTC 2008-12-04)

Audio
ID : 1
Format : MPEG Audio
Format version : Version 1
Format profile : Layer 3
Mode : Joint stereo
Mode extension : MS Stereo
Codec ID : 55
Codec ID/Hint : MP3
Duration : 1h 41mn
Bit rate mode : Constant
Bit rate : 128 Kbps
Channel(s) : 2 channels
Sampling rate : 48.0 KHz
Compression mode : Lossy
Stream size : 92.9 MiB (7%)
Alignment : Aligned on interleaves
Interleave, duration : 40 ms (1.00 video frame)
Interleave, preload duration : 504 ms
Writing library : LAME3.99r
Encoding settings : -m j -V 4 -q 9 -lowpass 17 -b 128

pb.wtf



Скачать Три в одном 2 через торрент http://i99.fastpic.ru/big/2017/1222/70/9561074ae2cdffd5fa1e717a63d4ce70.jpg Скачать фильм Три в одном 2 через торрент бесплантно в хорошем качестве Описание: Новый клиент агентства расставаний и встреч "Новая жизнь" внезапно становится пылким поклонником самой хозяйки агентства Инги ... 9.9 10 8
Торрент: Зарегистрирован [2017-12-22 10:51] · скачан: 106 раз
Статус: √ проверено
Размер: 1.37 GB
Как cкачать? Как скачать Три в одном 2 через торрент | qTorrent

% Раздел Тема Автор DL S | L
Наши сериалы [ 1.06 GB ] Три в одном / Сезон: 8 / Серии: 1-2 из 2 [2019 SATRip-AVC] aleksan55 Скачать
1 | 0
Наши сериалы [ 1.05 GB ] Три в одном / Сезон: 7 / Серии: 1-2 из 2 [2019 SATRip-AVC] aleksan55 Скачать
1 | 0
Наши сериалы [ 1.07 GB ] Три в одном / Сезон: 6 / Серии: 1-2 из 2 [2019 SATRip-AVC] aleksan55 Скачать
1 | 0
Наши сериалы [ 1.13 GB ] Три в одном / Сезон: 5 / Серии: 1-2 из 2 [2019 SATRip-AVC] aleksan55 Скачать
1 | 0
Наши сериалы [ 1.12 GB ] Три в одном / Сезон: 4 / Серии: 1-2 из 2 [2019 SATRip-AVC] aleksan55 Скачать
1 | 0
Наши сериалы [ 1.17 GB ] Три в одном-3 / Серии: 1-2 из 2 [2018 SATRip-AVC] aleksan55 Скачать
1 | 0
Наши сериалы [ 1.21 GB ] Три в одном-2 / Серии: 1-2 из 2 [2017 SATRip-AVC] aleksan55 Скачать
1 | 0

28-11-2019 20:33  

Отключить всю рекламу на сайте

22-12-2017 17:15 Три в одном 2 Скачать торрент  

Топик был перенесен из форума Наши новые фильмы 2017 в форум Наши сериалы


-Lexx-pb.wtf



    Дорогой пользователь! Огромная просьба, поблагодарите релизера, оцените раздачу и оставьте свои комментарий, если Вы скачали Три в одном 2 через торрент бесплатно! Внесите свою лепту в развитие PiratBit!
    Комментировать посты могут только пользователи прошедшие не сложную регистрацию
    Показать сообщения:    

    Три в одном 2 через торрент
    Скачать бесплатно Три в одном 2
    Три в одном 2 скачать торрент
    Три в одном 2 смотреть онлайн
    Cкачать фильм Три в одном 2 бесплатно
    Три в одном 2 скачать торрент в хорошем качестве
    Три в одном 2 смотреть онлайн бесплатно в хорошем качестве


    Вы не можете начинать темы
    Вы не можете отвечать на сообщения
    Вы не можете редактировать свои сообщения
    Вы не можете удалять свои сообщения
    Вы не можете голосовать в опросах
    Вы не можете прикреплять файлы к сообщениям
    Вы можете скачивать файлы