Ссылка на приватное зеркало нашего сайта всего за 1$. Внимание количество ограничено!!!

2 сезон

iTunes

1 сезон

1

2 сезон

2 сезон

iTunes

1 сезон

RePack

30

Ultimate

ВАЖНО

ИГРА 18+

pack

RePack

MK11
pack

Забери бонус

RePack

jed

!!Акция!!

Alien_Rage

RePack

fifa19

RePack

Assassins Creed: Odyssey

RePack

NEED FOR SPEED™ PAYBACK

4 сезон

9 сезон

Бесстыжие 9 сезон

Все сериалы

все сериалы на PB.wtf

RePack

FAR CRY 5
  

Корона / The Crown / Сезон: 2 / Серии 1-10 из 10 (Бенжамин Карон, Стивен Долдри, Филип Мартин) [2017, Историческая драма, WEBRip] [MVO] (Good People) pb.wtf

Корона через торрент pb.wtf

Размер: 6.6 GB | Добавлен: 2 года 10 мес. назад | Торрент скачан:51 раз
Скачать  

22-12-2017 16:16 Корона Скачать торрент  

Корона | The Crown
Год выпуска: 2017
Страна: Великобритания / Sony Pictures Television Production UK
Жанр: Историческая драма
Продолжительность: ~ 00:59:00
Перевод: Профессиональный (многоголосый закадровый) | Good People

Режиссёр: Бенжамин Карон, Стивен Долдри, Филип Мартин

В ролях: Дэниэл Беттс, Джеймс Хиллер, Джереми Нортэм, Джаред Харрис, Ник Оуэнфорд, Мартин Бишоп, Рита МакДональд Дампер, Карл Фаррер и др.

Описание: Нередко сериалы посвящают историческим личностям, которые внесли огромный вклад в развитие различных научных сфер деятельности или культуры. Но если сериал посвящают человеку при жизни, то значит он того явно заслужил. В центре внимания истории "Корона" находится британская королева Елизавета Вторая, которая славится своей харизматичной личностью и умением держать страну "на коротком поводке". Перед нами сериал, который рассказывает о состоянии дел британского правительства на момент окончания Второй Мировой Войны. Жизнь сложно назвать простой и беззаботной, поэтому английские высшие чины пытаются поднять с колен ранее величайшую империю.



Качество: WEBRip
Формат: AVI
Видео: XviD, ~ 1400 kbps, 704x352 (2,000), 25 fps
Аудио 1: MP3, 48,0 КГц, 2 ch, 128 kbps - Rus
Аудио 2: MP3, 48,0 КГц, 2 ch, 128 kbps - Eng
Субтитры: отсутствуют
Общее
Полное имя                               : E:\GoodPeople\The Crown. Season 2 (WEBRip l 400p l Good People)\The.Crown.S02E01.WEBRip.Rus.Eng.GoodPeople.avi
Формат                                   : AVI
Формат/Информация                        : Audio Video Interleave
Размер файла                             : 651 Мбайт
Продолжительность                        : 56 м. 36 с.
Общий поток                              : 1608 Кбит/сек
Программа кодирования                    : VirtualDubMod 1.5.10.3 | www.virtualdub-fr.org || (build 2550/release)
Библиотека кодирования                   : VirtualDubMod build 2550/release

Видео
Идентификатор                            : 0
Формат                                   : MPEG-4 Visual
Профиль формата                          : Advanced Simple@L5
Настройки формата                        : BVOP1 / Custom Matrix
Параметр BVOP формата                    : 1
Параметр QPel формата                    : Нет
Параметр GMC формата                     : Без точки перехода
Параметр матрицы формата                 : Выборочная
Идентификатор кодека                     : XVID
Идентификатор кодека/Подсказка           : XviD
Продолжительность                        : 56 м. 36 с.
Битрейт                                  : 1338 Кбит/сек
Ширина                                   : 704 пикселя
Высота                                   : 352 пикселя
Соотношение сторон                       : 2,000
Частота кадров                           : 25,000 кадров/сек
Цветовое пространство                    : YUV
Субдискретизация насыщенности            : 4:2:0
Битовая глубина                          : 8 бит
Тип развёртки                            : Прогрессивная
Метод сжатия                             : С потерями
Бит/(Пиксели*Кадры)                      : 0.216
Размер потока                            : 542 Мбайт (83%)
Библиотека кодирования                   : XviD 73

Аудио #1
Идентификатор                            : 1
Формат                                   : MPEG Audio
Версия формата                           : Version 1
Профиль формата                          : Layer 3
Настройки формата                        : Joint stereo / MS Stereo
Идентификатор кодека                     : 55
Идентификатор кодека/Подсказка           : MP3
Продолжительность                        : 56 м. 36 с.
Вид битрейта                             : Постоянный
Битрейт                                  : 128 Кбит/сек
Каналы                                   : 2 канала
Частота                                  : 48,0 КГц
Метод сжатия                             : С потерями
Размер потока                            : 51,8 Мбайт (8%)
Выравнивание                             : Соединение по промежуткам
Продолжительность промежутка             : 40  мс. (1,00 видеокадр)
Время предзагрузки промежутка            : 504  мс.

Аудио #2
Идентификатор                            : 2
Формат                                   : MPEG Audio
Версия формата                           : Version 1
Профиль формата                          : Layer 3
Настройки формата                        : Joint stereo / MS Stereo
Идентификатор кодека                     : 55
Идентификатор кодека/Подсказка           : MP3
Продолжительность                        : 56 м. 36 с.
Вид битрейта                             : Постоянный
Битрейт                                  : 128 Кбит/сек
Каналы                                   : 2 канала
Частота                                  : 48,0 КГц
Метод сжатия                             : С потерями
Размер потока                            : 51,8 Мбайт (8%)
Выравнивание                             : Соединение по промежуткам
Продолжительность промежутка             : 40  мс. (1,00 видеокадр)
Время предзагрузки промежутка            : 504  мс.
скриншот  скриншот  скриншот  
Когда раздача ведётся путём добавления новых серий, при каждом добавлении создётся новый торрент. Чтобы начать докачку новой серии, пользователям необходимо сделать следующее:
(1) остановить скачивание,
(2) удалить старый торрент у себя из клиента (старые серии удалять не надо),
(3) скачать новый торрент и запустить его у себя в клиенте вместо старого, при этом указать клиенту путь в старую папку, куда и должно происходить скачивание новых серий.
Ваш клиент при этом должен произвести хеширование (проверку) старой папки (если не производит сам - помогите ему сделать это), и будет докачивать только те серии, которых у вас ещё нет. Старые серии при этом не удаляются, а продолжают раздаваться!
Eсли вы уже удалили старые серии, то предотвратить повторную закачку старых серий можно, отжав галочку в соответсвующих местах при запуске нового торрента. По возможности, желательно не удалять старые серии как можно дольше, чтобы релизёр не столько продолжал раздавать старые серии, а смог сконцентрироваться на новых.
pb.wtf



Скачать Корона через торрент http://i101.fastpic.ru/big/2017/1222/d8/7132119d4e7be966334cb9a979a582d8.jpg Скачать фильм Корона через торрент бесплантно в хорошем качестве Описание: Нередко сериалы посвящают историческим личностям, которые внесли огромный вклад в развитие различных научных сфер деятельности ... 5.5 10 4
Торрент: Зарегистрирован [2018-01-17 11:20] · скачан: 51 раз
Статус: √ проверено
Размер: 6.6 GB
Как cкачать? Как скачать Корона через торрент | qTorrent

% Раздел Тема Автор DL S | L
Зарубежные сериалы [ 49.66 GB ] Корона / The Crown / Сезон: 2 / Серии: 1-10 из 10 [2017 история BDRip 1080p] DUB [SDI Media] bober100 Скачать
1 | 0
Зарубежные сериалы [ 5.25 GB ] Корона / The Crown / Сезон: 2 / Серии: 1-3 из 10 [2017 история WEBRip 1080p] MVO [TVShows] bober100 Скачать
1 | 0
Фильмы с украинским озвучиванием [ 19.24 GB ] Корона / The Crown / Сезон: 2 / Серии 1-10 из 10 [2017 история биография WEBRip 1080p] [Ukr MVO] killermax2013 Скачать
1 | 0
Зарубежные сериалы [ 36.88 GB ] Корона / The Crown / Сезон: 2 / Серии 1-10 из 10 [2017 Историческая WEBRip 1080p] [MVO] killermax2013 Скачать
1 | 0
Зарубежные сериалы [ 6.6 GB ] Корона / The Crown / Сезон: 2 / Серии 1-10 из 10 [2017 Историческая WEBRip] [MVO] killermax2013 Скачать
1 | 0
Зарубежные сериалы [ 19.23 GB ] Корона / The Crown / Сезон: 2 / Серии 1-10 из 10 [2017 Историческая WEBRip 1080p] [MVO] killermax2013 Скачать
1 | 0
Зарубежные сериалы [ 6.84 GB ] Корона / The Crown / Сезон: 2 / Серии 1-10 из 10 [2017 Историческая WEB-DLRip] [MVO] killermax2013 Скачать
1 | 0

28-11-2019 20:33  

Отключить всю рекламу на сайте

17-01-2018 11:20 Корона Скачать торрент  

+5-10 pb.wtf



    Дорогой пользователь! Огромная просьба, поблагодарите релизера, оцените раздачу и оставьте свои комментарий, если Вы скачали Корона через торрент бесплатно! Внесите свою лепту в развитие PiratBit!
    Комментировать посты могут только пользователи прошедшие не сложную регистрацию
    Показать сообщения:    

    Корона через торрент
    Скачать бесплатно Корона
    Корона скачать торрент
    Корона смотреть онлайн
    Cкачать фильм Корона бесплатно
    Корона скачать торрент в хорошем качестве
    Корона смотреть онлайн бесплатно в хорошем качестве


    Вы не можете начинать темы
    Вы не можете отвечать на сообщения
    Вы не можете редактировать свои сообщения
    Вы не можете удалять свои сообщения
    Вы не можете голосовать в опросах
    Вы не можете прикреплять файлы к сообщениям
    Вы можете скачивать файлы