Ссылка на приватное зеркало нашего сайта всего за 1$. Внимание количество ограничено!!!

2 сезон

iTunes

1 сезон

1

2 сезон

2 сезон

iTunes

1 сезон

RePack

30

Ultimate

ВАЖНО

ИГРА 18+

pack

RePack

MK11
pack

Забери бонус

RePack

jed

!!Акция!!

Alien_Rage

RePack

fifa19

RePack

Assassins Creed: Odyssey

RePack

NEED FOR SPEED™ PAYBACK

4 сезон

9 сезон

Бесстыжие 9 сезон

Все сериалы

все сериалы на PB.wtf

RePack

FAR CRY 5
  

Долгая дорога домой / The Long Road Home / Сезон: / Серии 1-8 из 8 (Фил Абрахам, Микаэл Саломон) [2017, США, драма, военный, WEB-DLRip 1080p] MVO [BaibaKo] pb.wtf

Долгая дорога домой через торрент pb.wtf

Размер: 16.1 GB | Добавлен: 2 года 11 мес. назад | Торрент скачан:39 раз
Скачать  

23-12-2017 02:26 Долгая дорога домой Скачать торрент  


Долгая дорога домой / The Long Road Home



  • Год выпуска: 2017
  • Страна: США
  • Жанр: драма, военный
  • Продолжительность: ~ 00:50:00 (Серия)
  • Перевод: Профессиональный многоголосый [BaibaKo]
  • Режиссер: Фил Абрахам, Микаэл Саломон
  • В ролях:
    Э.Дж. Бонилья, Джон Биверс, Джош Блейлок, Джошуа Бреннан, Хорхе Диас, Дариус Хомайоун, Джозеф Лутман, Томас МакДонелл и др.



  • Сериал рассказывает о событиях 4 апреля 2004 года, когда американские войска попали в засаду в пригороде Багдада, потеряв восьмерых человек. Этот день в Штатах стали называть Чёрным воскресеньем.
  • Рейтинг:

    rating
  • Качество: WEB-DLRip 1080p
  • Формат: :MKV
  • Видео кодек: AVC
  • Аудио кодек: AC3
  • Видео: 5296 Кбит/сек, 1920*1080 (16:9), в 23,976 кадра/сек, AVC
  • Аудио №1: русский 384 Кбит/сек, 48,0 КГц, 16 бит, 6 каналов, AC-3 |[BaibaKo]|
  • Аудио №2: английский 384 Кбит/сек, 48,0 КГц, 16 бит, 6 каналов, AC-3
  • Релиз от: GEKADOL

    Общее
    Уникальный идентификатор : 151014181429696739385294068791861053980 (0x719C45FDD24A9B013FB6341C3BAC0A1C)
    Полное имя : F:\Долгая дорога домой (The Long Road Home)\The.Long.Road.Home.s01e08.HD1080p.WEB-DL.Rus.Eng.BaibaKo.tv.mkv
    Формат : Matroska
    Версия формата : Version 4 / Version 2
    Размер файла : 2,14 Гбайт
    Продолжительность : 50 м. 34 с.
    Общий поток : 6066 Кбит/сек
    Дата кодирования : UTC 2017-12-23 01:50:16
    Программа кодирования : mkvmerge v19.0.0 ('Brave Captain') 64-bit
    Библиотека кодирования : libebml v1.3.5 + libmatroska v1.4.8

    Видео
    Идентификатор : 1
    Формат : AVC
    Формат/Информация : Advanced Video Codec
    Профиль формата : High@L4
    Настройки формата : CABAC / 4 Ref Frames
    Параметр CABAC формата : Да
    Параметр RefFrames формата : 4 кадра
    Идентификатор кодека : V_MPEG4/ISO/AVC
    Продолжительность : 50 м. 34 с.
    Битрейт : 5296 Кбит/сек
    Ширина : 1920 пикселей
    Высота : 1080 пикселей
    Соотношение сторон : 16:9
    Режим частоты кадров : Постоянный
    Частота кадров : 23,976 кадра/сек
    Цветовое пространство : YUV
    Субдискретизация насыщенности : 4:2:0
    Битовая глубина : 8 бит
    Тип развёртки : Прогрессивная
    Бит/(Пиксели*Кадры) : 0.107
    Размер потока : 1,87 Гбайт (87%)
    Default : Нет
    Forced : Нет
    Цветовой диапазон : Limited
    Основные цвета : BT.709
    Характеристики трансфера : BT.709
    Коэффициенты матрицы : BT.709

    Аудио #1
    Идентификатор : 2
    Формат : AC-3
    Формат/Информация : Audio Coding 3
    Идентификатор кодека : A_AC3
    Продолжительность : 50 м. 34 с.
    Вид битрейта : Постоянный
    Битрейт : 384 Кбит/сек
    Каналы : 6 каналов
    Расположение каналов : Front: L C R, Side: L R, LFE
    Частота : 48,0 КГц
    Частота кадров : 31,250 кадров/сек (1536 SPF)
    Битовая глубина : 16 бит
    Метод сжатия : С потерями
    Задержка видео : 23 мс.
    Размер потока : 139 Мбайт (6%)
    Язык : Russian
    ServiceKind/String : Complete Main
    Default : Да
    Forced : Нет

    Аудио #2
    Идентификатор : 3
    Формат : AC-3
    Формат/Информация : Audio Coding 3
    Идентификатор кодека : A_AC3
    Продолжительность : 50 м. 34 с.
    Вид битрейта : Постоянный
    Битрейт : 384 Кбит/сек
    Каналы : 6 каналов
    Расположение каналов : Front: L C R, Side: L R, LFE
    Частота : 48,0 КГц
    Частота кадров : 31,250 кадров/сек (1536 SPF)
    Битовая глубина : 16 бит
    Метод сжатия : С потерями
    Задержка видео : 23 мс.
    Размер потока : 139 Мбайт (6%)
    Язык : English
    ServiceKind/String : Complete Main
    Default : Нет
    Forced : Нет





    Скриншоты:
    скриншот   скриншот   скриншот   скриншот   скриншот   скриншот   скриншот  
    скриншот  


    pb.wtf



  • Скачать Долгая дорога домой через торрент http://pic1.kartinco.top/images/11/7m1mn.jpg Скачать фильм Долгая дорога домой через торрент бесплантно в хорошем качестве qw.png Сериал рассказывает о событиях 4 апреля 2004 года, когда американские войска попали в засаду в пригороде Багдада, потеряв ... 10 10 2
    Info! Золотая раздача, скачанное не засчитывается.
    Торрент: Зарегистрирован [2017-12-23 02:29] · скачан: 39 раз
    Статус: √ проверено
    Размер: 16.1 GB
    Как cкачать? Как скачать Долгая дорога домой через торрент | qTorrent

    % Раздел Тема Автор DL S | L
    Зарубежные сериалы [ 4.41 GB ] Долгая дорога домой / The Long Road Home / Сезон: / Серии 1-8 из 8 [2017 военный WEB-DLRip] MVO [BaibaKo] GEKADOL Скачать
    1 | 0

    28-11-2019 20:33  

    Отключить всю рекламу на сайте

    23-04-2019 11:40 Долгая дорога домой Скачать торрент  

    Встаньте кто-нибудь на раздачу пожалуйста, не могу скачать.pb.wtf



    18-05-2019 12:52 Долгая дорога домой Скачать торрент  

    американские войска попали в засаду в пригороде Багдада, потеряв ВОСЬМЕРЫХ человек…
    пендосы ТАКОГО не прощаютpb.wtf



      Дорогой пользователь! Огромная просьба, поблагодарите релизера, оцените раздачу и оставьте свои комментарий, если Вы скачали Долгая дорога домой через торрент бесплатно! Внесите свою лепту в развитие PiratBit!
      Комментировать посты могут только пользователи прошедшие не сложную регистрацию
      Показать сообщения:    

      Долгая дорога домой через торрент
      Скачать бесплатно Долгая дорога домой
      Долгая дорога домой скачать торрент
      Долгая дорога домой смотреть онлайн
      Cкачать фильм Долгая дорога домой бесплатно
      Долгая дорога домой скачать торрент в хорошем качестве
      Долгая дорога домой смотреть онлайн бесплатно в хорошем качестве


      Вы не можете начинать темы
      Вы не можете отвечать на сообщения
      Вы не можете редактировать свои сообщения
      Вы не можете удалять свои сообщения
      Вы не можете голосовать в опросах
      Вы не можете прикреплять файлы к сообщениям
      Вы можете скачивать файлы