2 сезон

iTunes

MVO

1

2 сезон

iTunes

iTunes

1 сезон

RePack

30

Ultimate

ВАЖНО

ИГРА 18+

pack

RePack

MK11
pack

Легкие деньги

RePack

jed

RePack

fifa19

RePack

RDR2

RePack

NEED FOR SPEED™ PAYBACK

4 сезон

9 сезон

Бесстыжие 9 сезон

Все сериалы

все сериалы на PB.wtf

RePack

FAR CRY 5

Anonymous, добрый вечер, мы не успеваем собрать деньги на оплату серверов за декабрь и январь, помогите нам пожалуйста в это трудное время. В качестве благодарности мы отключим Вам всю рекламу на сайте (укажите свой ник в строку Ваше имя)!

×
  
Magnet ссылка

Культ Чаки / Cult of Chucky (Дон Манчини) [2017, ужасы, триллер, BDRip] [Расширенная версия] DUB [Лицензия] pb.wtf

Культ Чаки через торрент pb.wtf

Размер: 1.46 GB | Добавлен: 3 года 1 мес. назад | Торрент скачан:196 раз
Скачать  

23-12-2017 08:53 Культ Чаки Скачать торрент  

Культ Чаки / Cult of Chucky
Расширенная версия


Год выпуска: 2017
Страна: США
Жанр: ужасы, триллер
Продолжительность: 01:30:56
Перевод: Дубляж - [Лицензия]
Субтитры: Русские форсированные (отдельно)
Режиссер: Дон Манчини
В ролях:

Фиона Дуриф, Майкл Терриоль, Адам Хертиг, Алекс Винсент, Элизабет Розен, Грэйс Линн Кунг, Марина Стивенсон Керр, Зак Сантьяго, Али Татарин, Дженнифер Тилли, Брэд Дуриф, Саммер Х. Хауэлл (Alice Pierce)
Описание:
Ника Пирс 4 года провела в лечебнице. Ее убеждают в том, что она виновна в гибели семьи, а не кукла Чаки. Когда лечащий врач предлагает новый вариант терапии с куклой с добрым лицом, в лечебнице начинают погибать люди, и Ника начинает думать, что ее кошмары реальны. Энди Барклай повзрослел и спешит на помощь, но ему хочет помешать Тиффани - невеста Чаки, готовая на все, чтобы помочь возлюбленному.
Рейтинг:

Качество: BDRip
Формат: AVI
Видео: XviD, 688x384 (16:9), 1751 kbps, 23,976 fps, 0,276 bpp
Аудио: AC3 / 5.1 / 48 kHz / 448 kbps /
Релиз от: MegaPeer
General
Complete name : E:\Cult.of.Chucky.2017.UNRATED.BDRip.1.46Gb.Dub.MegaPeer\Cult.of.Chucky.2017.UNRATED.BDRip.1.46Gb.Dub.MegaPeer.avi
Format : AVI
Format/Info : Audio Video Interleave
File size : 1.46 GiB
Duration : 1 h 30 min
Overall bit rate : 2 299 kb/s
Writing application : VirtualDubMod 1.5.10.2 (build 2540/release)
Writing library : VirtualDubMod build 2540/release

Video
ID : 0
Format : MPEG-4 Visual
Format profile : Advanced Simple@L5
Format settings, BVOP : 1
Format settings, QPel : No
Format settings, GMC : No warppoints
Format settings, Matrix : Custom
Codec ID : XVID
Codec ID/Hint : XviD
Duration : 1 h 30 min
Bit rate : 1 751 kb/s
Width : 688 pixels
Height : 384 pixels
Display aspect ratio : 16:9
Frame rate : 23.976 (24000/1001) FPS
Color space : YUV
Chroma subsampling : 4:2:0
Bit depth : 8 bits
Scan type : Progressive
Compression mode : Lossy
Bits/(Pixel*Frame) : 0.276
Stream size : 1.11 GiB (76%)
Writing library : XviD 73

Audio
ID : 1
Format : AC-3
Format/Info : Audio Coding 3
Mode extension : CM (complete main)
Format settings, Endianness : Big
Codec ID : 2000
Duration : 1 h 30 min
Bit rate mode : Constant
Bit rate : 448 kb/s
Channel(s) : 6 channels
Channel positions : Front: L C R, Side: L R, LFE
Sampling rate : 48.0 kHz
Frame rate : 31.250 FPS (1536 spf)
Compression mode : Lossy
Stream size : 291 MiB (19%)
Alignment : Split accross interleaves
pb.wtf



Скачать Культ Чаки через торрент http://i5.imageban.ru/out/2017/12/23/b82948e84b4cc57a4e5b1354005aecb0.jpg Скачать фильм Культ Чаки через торрент бесплантно в хорошем качестве Описание: Ника Пирс 4 года провела в лечебнице. Ее убеждают в том, что она виновна в гибели семьи, а не кукла Чаки. Когда лечащий врач ... 9.1 10 10
Торрент: Зарегистрирован [2017-12-23 08:53] · скачан: 196 раз
Статус: √ проверено
Размер: 1.46 GB
Как cкачать? Как скачать Культ Чаки через торрент | UTorrent

% Раздел Тема Автор DL S | L
Фильмы 2017 [DVDrip, WEB-DLRip, HDrip] (DUB, MVO) [ 2.43 GB ] Культ Чаки / Cult of Chucky [2017 BDRip-AVC] DUB [] +MVO [ViruseProject] [Расширенная версия] bober100 Скачать
1 | 0
Фильмы 2017 [DVDrip, WEB-DLRip, HDrip] (DUB, MVO) [ 1.46 GB ] Культ Чаки / Cult of Chucky [2017 BDRip] - [] Twi7ter Скачать
1 | 0
Фильмы (Blu-ray, BD-Remux, HDDVD) [ 19.93 GB ] Культ Чаки / Cult of Chucky [2017 BDRemux 1080р] [Расширенная версия ] DUB [] -Lexx- Скачать
1 | 0
Фильмы 2017 [DVDrip, WEB-DLRip, HDrip] (DUB, MVO) [ 745 MB ] Культ Чаки / Cult of Chucky [2017 BDRip] DUB [] [Расширенная версия] bober100 Скачать
1 | 0

28-11-2019 20:33  

Отключить всю рекламу на сайте

23-12-2017 09:30 Культ Чаки Скачать торрент  

Рекламы нету?pb.wtf
K-Lexx- писал(а):

Нет.



    Дорогой пользователь! Огромная просьба, поблагодарите релизера, оцените раздачу и оставьте свои комментарий, если Вы скачали Культ Чаки через торрент бесплатно! Внесите свою лепту в развитие PiratBit!
    Комментировать посты могут только пользователи прошедшие не сложную регистрацию
    Показать сообщения:    

    Культ Чаки через торрент
    Скачать бесплатно Культ Чаки
    Культ Чаки скачать торрент
    Культ Чаки смотреть онлайн
    Cкачать фильм Культ Чаки бесплатно
    Культ Чаки скачать торрент в хорошем качестве
    Культ Чаки смотреть онлайн бесплатно в хорошем качестве


    Вы не можете начинать темы
    Вы не можете отвечать на сообщения
    Вы не можете редактировать свои сообщения
    Вы не можете удалять свои сообщения
    Вы не можете голосовать в опросах
    Вы не можете прикреплять файлы к сообщениям
    Вы можете скачивать файлы