2 сезон

iTunes

MVO

1

2 сезон

iTunes

iTunes

1 сезон

RePack

30

Новинка

ВАЖНО

ИГРА 18+

pack

RePack

MK11
pack

Легкие деньги

RePack

jed

RePack

fifa19

RePack

RDR2

RePack

NEED FOR SPEED™ PAYBACK

4 сезон

9 сезон

Бесстыжие 9 сезон

Все сериалы

все сериалы на PB.wtf

RePack

FAR CRY 5

Anonymous, доброй ночи, мы не успеваем собрать деньги на оплату серверов за декабрь и январь, помогите нам пожалуйста в это трудное время. В качестве благодарности мы отключим Вам всю рекламу на сайте (укажите свой ник в строку Ваше имя)!

×
  
Magnet ссылка

Культ Чаки / Cult of Chucky (Дон Манчини) [2017, Ужасы, триллер, BDRip-AVC] DUB [Лицензия] +MVO [ViruseProject] [Расширенная версия] pb.wtf

Культ Чаки через торрент pb.wtf

Размер: 2.43 GB | Добавлен: 3 года 1 мес. назад | Торрент скачан:219 раз
Скачать  

23-12-2017 09:29 Культ Чаки Скачать торрент  

Культ Чаки / Cult of Chucky
| Расширенная версия |
Год выпуска: 2017
Страна: США
Жанр: Ужасы, триллер
Продолжительность: 01:30:59
Перевод: Дублированный (Лицензия), Профессиональный (многоголосый, закадровый) | ViruseProject
Субтитры: Русские, английские
Реклама нет!!!

Режиссер: Дон Манчини

rating

В ролях:

Дженнифер Тилли, Фиона Дуриф, Брэд Дуриф, Алекс Винсент, Майкл Терриоль, Элизабет Розен, Зак Сантьяго, Грэйс Линн Кунг, Али Татарин, Саммер Х. Хауэлл

Описание:

Ника Пирс 4 года провела в лечебнице. Ее убеждают в том, что она виновна в гибели семьи, а не кукла Чаки. Когда лечащий врач предлагает новый вариант терапии с куклой с добрым лицом, в лечебнице начинают погибать люди, и Ника начинает думать, что ее кошмары реальны. Энди Барклай повзрослел и спешит на помощь, но ему хочет помешать Тиффани - невеста Чаки, готовая на все, чтобы помочь возлюбленному.

Качество: BDRip-AVC
Формат: MKV
Видео кодек: H.264
Аудио кодек: AC3

Видео: 1024x576 (16:9), 23.976 fps, x264 ~2479 kbps avg, 0.175 bit/pixel
Аудио#1: 48 kHz, AC3 Dolby Digital, 2 (L,R) ch, ~448.00 kbps avg | RUS (Дублированный) | Лицензия
Аудио#2: 48 kHz, AC3 Dolby Digital, 2 (L,R) ch, ~448.00 kbps avg | RUS (ViruseProject)
Аудио#3: 48 kHz, AC3 Dolby Digital, 3/2 (L,C,R,l,r) + LFE ch, ~448.00 kbps avg | ENG
скриншот   скриншот   скриншот   скриншот   скриншот   скриншот  

Общее
Уникальный идентификатор : 226186554733175580869139468984613674194 (0xAA29F2250CD7191F93501598E5091CD2)
Полное имя : D:ЗагрузкиCult.of.Chucky.2017.UNRATED.BDRip(AVC).OlLanDGroup.mkv
Формат : Matroska
Версия формата : Version 4 / Version 2
Размер файла : 2,43 Гбайт
Продолжительность : 1 ч. 30 м.
Общий поток : 3826 Кбит/сек
Название фильма : Cult.of.Chucky.2017 #TorpedoUK#
Дата кодирования : UTC 2017-12-23 08:59:35
Программа кодирования : mkvmerge v6.5.0 ('Isn't she lovely') built on Oct 20 2013 12:50:05
Библиотека кодирования : libebml v1.3.0 + libmatroska v1.4.1

Видео
Идентификатор : 1
Формат : AVC
Формат/Информация : Advanced Video Codec
Профиль формата : High@L4.1
Параметр CABAC формата : Да
Параметр ReFrames формата : 10 кадров
Идентификатор кодека : V_MPEG4/ISO/AVC
Продолжительность : 1 ч. 30 м.
Битрейт : 2479 Кбит/сек
Ширина : 1024 пикселя
Высота : 576 пикселей
Соотношение сторон : 16:9
Режим частоты кадров : Постоянный
Частота кадров : 23,976 (24000/1001) кадра/сек
Цветовое пространство : YUV
Субдискретизация насыщенности : 4:2:0
Битовая глубина : 8 бит
Тип развёртки : Прогрессивная
Бит/(Пиксели*Кадры) : 0.175
Размер потока : 1,53 Гбайт (63%)
Библиотека кодирования : x264 core 146 r2538 121396c
Настройки программы : cabac=1 / ref=10 / deblock=1:-3:-3 / analyse=0x3:0x133 / me=umh / subme=11 / psy=1 / psy_rd=1.00:0.03 / mixed_ref=1 / me_range=48 / chroma_me=1 / trellis=2 / 8x8dct=1 / cqm=0 / deadzone=21,11 / fast_pskip=1 / chroma_qp_offset=-3 / threads=6 / lookahead_threads=1 / sliced_threads=0 / nr=0 / decimate=1 / interlaced=0 / bluray_compat=0 / constrained_intra=0 / bframes=10 / b_pyramid=2 / b_adapt=2 / b_bias=0 / direct=3 / weightb=1 / open_gop=0 / weightp=2 / keyint=240 / keyint_min=23 / scenecut=40 / intra_refresh=0 / rc_lookahead=40 / rc=2pass / mbtree=0 / bitrate=2479 / ratetol=1.0 / qcomp=0.60 / qpmin=0 / qpmax=69 / qpstep=4 / cplxblur=20.0 / qblur=0.5 / vbv_maxrate=50000 / vbv_bufsize=62500 / nal_hrd=none / filler=0 / ip_ratio=1.40 / pb_ratio=1.30 / aq=1:1.00
Язык : English
Default : Да
Forced : Нет

Аудио #1
Идентификатор : 2
Формат : AC-3
Формат/Информация : Audio Coding 3
Расширение режима : CM (complete main)
Параметр Endianness формата : Big
Идентификатор кодека : A_AC3
Продолжительность : 1 ч. 30 м.
Вид битрейта : Постоянный
Битрейт : 448 Кбит/сек
Каналы : 6 каналов
Расположение каналов : Front: L C R, Side: L R, LFE
Частота : 48,0 КГц
Частота кадров : 31,250 кадров/сек (1536 spf)
Метод сжатия : С потерями
Размер потока : 291 Мбайт (12%)
Заголовок : Дублированный (Лицензия)
Язык : Russian
Default : Да
Forced : Нет

Аудио #2
Идентификатор : 3
Формат : AC-3
Формат/Информация : Audio Coding 3
Расширение режима : CM (complete main)
Параметр Endianness формата : Big
Идентификатор кодека : A_AC3
Продолжительность : 1 ч. 30 м.
Вид битрейта : Постоянный
Битрейт : 448 Кбит/сек
Каналы : 2 канала
Расположение каналов : Front: L R
Частота : 48,0 КГц
Частота кадров : 31,250 кадров/сек (1536 spf)
Метод сжатия : С потерями
Размер потока : 291 Мбайт (12%)
Заголовок : MVO (ViruseProject)
Язык : Russian
Default : Нет
Forced : Нет

Аудио #3
Идентификатор : 4
Формат : AC-3
Формат/Информация : Audio Coding 3
Расширение режима : CM (complete main)
Параметр Endianness формата : Big
Идентификатор кодека : A_AC3
Продолжительность : 1 ч. 30 м.
Вид битрейта : Постоянный
Битрейт : 448 Кбит/сек
Каналы : 6 каналов
Расположение каналов : Front: L C R, Side: L R, LFE
Частота : 48,0 КГц
Частота кадров : 31,250 кадров/сек (1536 spf)
Метод сжатия : С потерями
Размер потока : 291 Мбайт (12%)
Заголовок : Original
Язык : English
Default : Нет
Forced : Нет

Текст #1
Идентификатор : 5
Формат : UTF-8
Идентификатор кодека : S_TEXT/UTF8
Идентификатор кодека/Информация : UTF-8 Plain Text
Заголовок : Forced
Язык : Russian
Default : Да
Forced : Нет

Текст #2
Идентификатор : 6
Формат : UTF-8
Идентификатор кодека : S_TEXT/UTF8
Идентификатор кодека/Информация : UTF-8 Plain Text
Заголовок : Full
Язык : Russian
Default : Нет
Forced : Нет

Текст #3
Идентификатор : 7
Формат : UTF-8
Идентификатор кодека : S_TEXT/UTF8
Идентификатор кодека/Информация : UTF-8 Plain Text
Язык : English
Default : Нет
Forced : Нет

Меню
00:00:00.000 : en:Chapter 01
00:02:36.573 : en:Chapter 02
00:07:26.195 : en:Chapter 03
00:11:59.260 : en:Chapter 04
00:15:36.560 : en:Chapter 05
00:19:20.450 : en:Chapter 06
00:25:09.007 : en:Chapter 07
00:29:38.109 : en:Chapter 08
00:33:01.688 : en:Chapter 09
00:38:30.891 : en:Chapter 10
00:46:01.133 : en:Chapter 11
00:51:16.573 : en:Chapter 12
00:56:05.945 : en:Chapter 13
01:01:22.387 : en:Chapter 14
01:08:10.878 : en:Chapter 15
01:12:07.781 : en:Chapter 16
01:17:08.665 : en:Chapter 17
01:21:57.954 : en:Chapter 18
01:24:33.485 : en:Chapter 19
01:26:59.380 : en:Chapter 20
pb.wtf



Скачать Культ Чаки через торрент http://lostpix.com/img/2017-10/24/701tw8rp7fjyrgbl0aw4cpvlf.jpg Скачать фильм Культ Чаки через торрент бесплантно в хорошем качестве Описание: Ника Пирс 4 года провела в лечебнице. Ее убеждают в том, что она виновна в гибели семьи, а не кукла Чаки. Когда лечащий врач ... 8.5 10 8
Торрент: Зарегистрирован [2017-12-23 09:29] · скачан: 219 раз
Статус: √ проверено
Размер: 2.43 GB
Как cкачать? Как скачать Культ Чаки через торрент | UTorrent

% Раздел Тема Автор DL S | L
Фильмы 2017 [DVDrip, WEB-DLRip, HDrip] (DUB, MVO) [ 1.46 GB ] Культ Чаки / Cult of Chucky [2017 BDRip] - [] Twi7ter Скачать
1 | 0
Фильмы (Blu-ray, BD-Remux, HDDVD) [ 19.93 GB ] Культ Чаки / Cult of Chucky [2017 BDRemux 1080р] [Расширенная версия ] DUB [] -Lexx- Скачать
1 | 0
Фильмы 2017 [DVDrip, WEB-DLRip, HDrip] (DUB, MVO) [ 745 MB ] Культ Чаки / Cult of Chucky [2017 BDRip] DUB [] [Расширенная версия] bober100 Скачать
1 | 0
Фильмы 2017 [DVDrip, WEB-DLRip, HDrip] (DUB, MVO) [ 1.46 GB ] Культ Чаки / Cult of Chucky [2017 BDRip] [Расширенная версия] DUB [] -Lexx- Скачать
1 | 0

28-11-2019 20:33  

Отключить всю рекламу на сайте

24-02-2018 16:27 Культ Чаки Скачать торрент  

Чаки ещё может. Как фильм - слабоват. Но Чаки вытягивает! После блевотного "потомства" возвращение к корням. pb.wtf



    Дорогой пользователь! Огромная просьба, поблагодарите релизера, оцените раздачу и оставьте свои комментарий, если Вы скачали Культ Чаки через торрент бесплатно! Внесите свою лепту в развитие PiratBit!
    Комментировать посты могут только пользователи прошедшие не сложную регистрацию
    Показать сообщения:    

    Культ Чаки через торрент
    Скачать бесплатно Культ Чаки
    Культ Чаки скачать торрент
    Культ Чаки смотреть онлайн
    Cкачать фильм Культ Чаки бесплатно
    Культ Чаки скачать торрент в хорошем качестве
    Культ Чаки смотреть онлайн бесплатно в хорошем качестве


    Вы не можете начинать темы
    Вы не можете отвечать на сообщения
    Вы не можете редактировать свои сообщения
    Вы не можете удалять свои сообщения
    Вы не можете голосовать в опросах
    Вы не можете прикреплять файлы к сообщениям
    Вы можете скачивать файлы