Ссылка на приватное зеркало нашего сайта всего за 1$. Внимание количество ограничено!!!

2 сезон

iTunes

1 сезон

1

2 сезон

2 сезон

iTunes

1 сезон

RePack

30

Новинка

ВАЖНО

ИГРА 18+

pack

RePack

MK11
pack

Забери бонус

RePack

jed

!!Акция!!

Alien_Rage

RePack

fifa19

RePack

Assassins Creed: Odyssey

RePack

NEED FOR SPEED™ PAYBACK

4 сезон

9 сезон

Бесстыжие 9 сезон

Все сериалы

все сериалы на PB.wtf

RePack

FAR CRY 5
  

Статус Брэда / Brad's Status (Майк Уайт) [2017, Драма, комедия, музыка, BD Remux 1080p] DUB [iTunes] pb.wtf

Статус Брэда через торрент pb.wtf

Размер: 23.61 GB | Добавлен: 2 года 11 мес. назад | Торрент скачан:78 раз
Скачать  

23-12-2017 09:37 Статус Брэда Скачать торрент  

Статус Брэда / Brad's StatusГод выпуска: 2017
Страна: США
Жанр: Драма, комедия, музыка
Продолжительность: 01:41:57
Перевод: Дублированный | iTunes
Субтитры: Английские

Режиссер: Майк Уайт

rating

В ролях:

Бен Стиллер, Остин Абрамс, Дженна Фишер, Майкл Шин, Джемейн Клемент, Люк Уилсон, Шази Раджа, Луиза Ли, Майк Уайт, Хавьер Гробет

Описание:

У Брэда есть все, чтобы быть счастливым. Но, когда он встречает более успешных друзей детства, которые обставили его по всем статьям, он чувствует себя полным лузером.

Качество: BD Remux 1080p
Формат: MKV
Видео кодек: H.264
Аудио кодек: AC3/DTS

Видео: MPEG-4 AVC, 1920x1080, 28.8 Мbit/s, 23.976 fps
Аудио#1: 48 kHz, AC3, 5.1, 384 Kbps | Дублированный | iTunes | RUS |
Аудио#2: 48 kHz, DTS-HD MA, 5.1, 3926 Kbps | Оригинал | ENG |


Релиз от:
скриншот   скриншот   скриншот   скриншот  скриншот  

General
Unique ID : 327198460733389319666623233440408056343 (0xF628219EBCACC00F880DB005E432B217)
Complete name : G:VideoSSDBrads.Status.2017.BDREMUX.1080p.ExKinoRay.mkv
Format : Matroska
Format version : Version 4 / Version 2
File size : 23.6 GiB
Duration : 1 h 41 min
Overall bit rate mode : Variable
Overall bit rate : 33.1 Mb/s
Movie name : Brads Status 2017 from ExKinoRay
Encoded date : UTC 2017-12-23 04:06:14
Writing application : mkvmerge v19.0.0 ('Brave Captain') 64-bit
Writing library : libebml v1.3.5 + libmatroska v1.4.8

Video
ID : 1
Format : AVC
Format/Info : Advanced Video Codec
Format profile : High@L4.1
Format settings : CABAC / 4 Ref Frames
Format settings, CABAC : Yes
Format settings, ReFrames : 4 frames
Codec ID : V_MPEG4/ISO/AVC
Duration : 1 h 41 min
Bit rate mode : Variable
Bit rate : 28.8 Mb/s
Maximum bit rate : 39.0 Mb/s
Width : 1 920 pixels
Height : 1 080 pixels
Display aspect ratio : 16:9
Frame rate mode : Constant
Frame rate : 23.976 (24000/1001) FPS
Color space : YUV
Chroma subsampling : 4:2:0
Bit depth : 8 bits
Scan type : Progressive
Bits/(Pixel*Frame) : 0.580
Stream size : 20.5 GiB (87%)
Language : English
Default : Yes
Forced : No

Audio #1
ID : 2
Format : AC-3
Format/Info : Audio Coding 3
Codec ID : A_AC3
Duration : 1 h 41 min
Bit rate mode : Constant
Bit rate : 384 kb/s
Channel(s) : 6 channels
Channel positions : Front: L C R, Side: L R, LFE
Sampling rate : 48.0 kHz
Frame rate : 31.250 FPS (1536 SPF)
Bit depth : 16 bits
Compression mode : Lossy
Stream size : 280 MiB (1%)
Title : iTunes
Language : Russian
Service kind : Complete Main
Default : Yes
Forced : No

Audio #2
ID : 3
Format : DTS
Format/Info : Digital Theater Systems
Format profile : MA / Core
Codec ID : A_DTS
Duration : 1 h 41 min
Bit rate mode : Variable / Constant
Bit rate : 3 926 kb/s / 1 509 kb/s
Channel(s) : 6 channels
Channel positions : Front: L C R, Side: L R, LFE
Sampling rate : 48.0 kHz
Frame rate : 93.750 FPS (512 SPF)
Bit depth : 24 bits
Compression mode : Lossless / Lossy
Stream size : 2.80 GiB (12%)
Title : Original
Language : English
Default : No
Forced : No

Text
ID : 4
Format : UTF-8
Codec ID : S_TEXT/UTF8
Codec ID/Info : UTF-8 Plain Text
Duration : 1 h 40 min
Bit rate : 76 b/s
Count of elements : 1740
Stream size : 56.5 KiB (0%)
Language : English
Default : No
Forced : No

Menu
00:00:00.000 : en:Chapter 1
00:06:45.655 : en:Chapter 2
00:09:51.549 : en:Chapter 3
00:13:41.821 : en:Chapter 4
00:19:08.647 : en:Chapter 5
00:25:13.929 : en:Chapter 6
00:31:48.615 : en:Chapter 7
00:34:22.769 : en:Chapter 8
00:39:59.063 : en:Chapter 9
00:43:55.508 : en:Chapter 10
00:49:21.041 : en:Chapter 11
00:56:21.503 : en:Chapter 12
01:03:05.156 : en:Chapter 13
01:07:03.770 : en:Chapter 14
01:10:27.306 : en:Chapter 15
01:15:14.802 : en:Chapter 16
01:22:07.047 : en:Chapter 17
01:27:11.268 : en:Chapter 18
01:31:19.265 : en:Chapter 19
01:35:28.723 : en:Chapter 20

pb.wtf



Скачать Статус Брэда через торрент http://i053.radikal.ru/1712/d7/6004b1608f17.jpg Скачать фильм Статус Брэда через торрент бесплантно в хорошем качестве Описание: У Брэда есть все, чтобы быть счастливым. Но, когда он встречает более успешных друзей детства, которые обставили его по всем ... 10 10 2
Торрент: Зарегистрирован [2017-12-23 09:37] · скачан: 78 раз
Статус: √ проверено
Размер: 23.61 GB
Как cкачать? Как скачать Статус Брэда через торрент | qTorrent

28-11-2019 20:33  

Отключить всю рекламу на сайте

    Дорогой пользователь! Огромная просьба, поблагодарите релизера, оцените раздачу и оставьте свои комментарий, если Вы скачали Статус Брэда через торрент бесплатно! Внесите свою лепту в развитие PiratBit!
    Комментировать посты могут только пользователи прошедшие не сложную регистрацию
    Показать сообщения:    

    Статус Брэда через торрент
    Скачать бесплатно Статус Брэда
    Статус Брэда скачать торрент
    Статус Брэда смотреть онлайн
    Cкачать фильм Статус Брэда бесплатно
    Статус Брэда скачать торрент в хорошем качестве
    Статус Брэда смотреть онлайн бесплатно в хорошем качестве


    Вы не можете начинать темы
    Вы не можете отвечать на сообщения
    Вы не можете редактировать свои сообщения
    Вы не можете удалять свои сообщения
    Вы не можете голосовать в опросах
    Вы не можете прикреплять файлы к сообщениям
    Вы можете скачивать файлы