Ссылка на приватное зеркало нашего сайта всего за 1$. Внимание количество ограничено!!!

2 сезон

iTunes

1 сезон

1

2 сезон

2 сезон

iTunes

1 сезон

RePack

30

Ultimate

ВАЖНО

ИГРА 18+

pack

RePack

MK11
pack

Забери бонус

RePack

jed

!!Акция!!

Alien_Rage

RePack

fifa19

RePack

Assassins Creed: Odyssey

RePack

NEED FOR SPEED™ PAYBACK

4 сезон

9 сезон

Бесстыжие 9 сезон

Все сериалы

все сериалы на PB.wtf

RePack

FAR CRY 5
  

Отель Желание / Hotel Desire (Сергей Мойя) [2011, драма, мелодрама, короткометражный, BDRip 1080p by msltel] VO pb.wtf

Отель Желание через торрент pb.wtf

Раздают: 1 [ 352 KB/s ]
Размер: 3.96 GB | Добавлен: 2 года 11 мес. назад | Торрент скачан:89 раз
Скачать  

23-12-2017 11:23 Отель Желание Скачать торрент  

Название: Отель Желание
Оригинальное название: Hotel Desire
Год выпуска: 2011
Страна: Германия
Жанр: драма, мелодрама, короткометражный
Продолжительность: 00:39:15
Перевод: любительский одноголосый

Режиссер: Сергей Мойя
В ролях: Сарализа Фольм, Клеменс Шик, Ян Грегор Кремп, Херберт Науп, Фредерик Лау, Полина Рожински, Ханс-Уве Бауэр, Карл Льюбек

О фильме: Антония, одинокая мать, ведёт монотонный образ жизни, имея напряжённую работу в отеле Берлина, а всё свободное время посвящая воспитанию восьмилетнего сына. Но в один рабочий день, оказавшись в гостиной номера 823, сталкивается с постояльцем Юлием, который слеп… И эта встреча приводит к страстному сексу…



Качество: BDRip 1080p
Формат: MKV
Видео: MPEG-4 AVC, 12.6 Mбит/с, 1920x816
Аудио 1: русский, AC3, 320 kbps, 2 ch [любительский одноголосый, Олег Воротилин]
Аудио 2: немецкий, DTS, 1509 kbps, 6 ch, 48 kHz [оригинал]
Субтитры 1: русские
Субтитры 2: английские
Общее
Уникальный идентификатор : 243456100302817886690486702918994697430 (0xB727F07AA9D03EF4AC3F587D101B1CD6)
Полное имя : D:\Video\Отель Желание.2011.BDRip.1080p by msltel.mkv
Формат : Matroska
Версия формата : Version 4 / Version 2
Размер файла : 3,96 Гбайт
Продолжительность : 39 м. 15 с.
Общий поток : 14,4 Мбит/сек
Название фильма : Rip by msltel
Дата кодирования : UTC 2017-12-23 10:27:27
Программа кодирования : mkvmerge v8.2.0 ('World of Adventure') 64bit
Библиотека кодирования : libebml v1.3.1 + libmatroska v1.4.2

Видео
Идентификатор : 1
Формат : AVC
Формат/Информация : Advanced Video Codec
Профиль формата : High@L4.1
Настройки формата : CABAC / 4 Ref Frames
Параметр CABAC формата : Да
Параметр RefFrames формата : 4 кадра
Идентификатор кодека : V_MPEG4/ISO/AVC
Продолжительность : 39 м. 15 с.
Битрейт : 12,6 Мбит/сек
Ширина : 1920 пикселей
Высота : 816 пикселей
Соотношение сторон : 2,35:1
Режим частоты кадров : Постоянный
Частота кадров : 23,976 (24000/1001) кадра/сек
Цветовое пространство : YUV
Субдискретизация насыщенности : 4:2:0
Битовая глубина : 8 бит
Тип развёртки : Прогрессивная
Бит/(Пиксели*Кадры) : 0.336
Размер потока : 3,46 Гбайт (87%)
Библиотека кодирования : x264 core 146 r2538 121396c
Настройки программы : cabac=1 / ref=4 / deblock=1:-3:-2 / analyse=0x3:0x113 / me=umh / subme=11 / psy=1 / psy_rd=1.00:0.15 / mixed_ref=1 / me_range=32 / chroma_me=1 / trellis=2 / 8x8dct=1 / cqm=0 / deadzone=21,11 / fast_pskip=0 / chroma_qp_offset=-3 / threads=6 / lookahead_threads=1 / sliced_threads=0 / nr=0 / decimate=1 / interlaced=0 / bluray_compat=0 / constrained_intra=0 / bframes=6 / b_pyramid=2 / b_adapt=2 / b_bias=0 / direct=1 / weightb=1 / open_gop=0 / weightp=2 / keyint=230 / keyint_min=23 / scenecut=40 / intra_refresh=0 / rc_lookahead=40 / rc=crf / mbtree=0 / crf=17.4 / qcomp=0.60 / qpmin=0 / qpmax=69 / qpstep=4 / vbv_maxrate=62500 / vbv_bufsize=78125 / crf_max=0.0 / nal_hrd=none / filler=0 / ip_ratio=1.40 / pb_ratio=1.30 / aq=1:1.00
Язык : German
Default : Да
Forced : Нет

Аудио #1
Идентификатор : 2
Формат : AC-3
Формат/Информация : Audio Coding 3
Идентификатор кодека : A_AC3
Продолжительность : 36 м. 48 с.
Вид битрейта : Постоянный
Битрейт : 320 Кбит/сек
Каналы : 2 канала
Расположение каналов : Front: L R
Частота : 48,0 КГц
Частота кадров : 31,250 кадров/сек (1536 SPF)
Битовая глубина : 16 бит
Метод сжатия : С потерями
Размер потока : 84,2 Мбайт (2%)
Заголовок : Олег Воротилин
Язык : Russian
ServiceKind/String : Complete Main
Default : Да
Forced : Нет

Аудио #2
Идентификатор : 3
Формат : DTS
Формат/Информация : Digital Theater Systems
Идентификатор кодека : A_DTS
Продолжительность : 39 м. 15 с.
Вид битрейта : Постоянный
Битрейт : 1509 Кбит/сек
Каналы : 6 каналов
Расположение каналов : Front: L C R, Side: L R, LFE
Частота : 48,0 КГц
Частота кадров : 93,750 кадра/сек (512 SPF)
Битовая глубина : 24 бит
Метод сжатия : С потерями
Размер потока : 424 Мбайт (10%)
Заголовок : original
Язык : German
Default : Нет
Forced : Нет

Текст #1
Идентификатор : 4
Формат : UTF-8
Идентификатор кодека : S_TEXT/UTF8
Идентификатор кодека/Информация : UTF-8 Plain Text
Продолжительность : 36 м. 35 с.
Битрейт : 59 бит/сек
ElementCount : 210
Размер потока : 15,9 Кбайт (0%)
Заголовок : русские
Язык : Russian
Default : Нет
Forced : Нет

Текст #2
Идентификатор : 5
Формат : UTF-8
Идентификатор кодека : S_TEXT/UTF8
Идентификатор кодека/Информация : UTF-8 Plain Text
Продолжительность : 36 м. 35 с.
Битрейт : 30 бит/сек
ElementCount : 209
Размер потока : 8,27 Кбайт (0%)
Заголовок : английские
Язык : English
Default : Нет
Forced : Нет
pb.wtf



Скачать Отель Желание через торрент http://c.radikal.ru/c02/1712/e0/c6f622642010.jpg Скачать фильм Отель Желание через торрент бесплантно в хорошем качестве О фильме: Антония, одинокая мать, ведёт монотонный образ жизни, имея напряжённую работу в отеле Берлина, а всё свободное время посвящая ... 9.9 10 7
Info! Золотая раздача, скачанное не засчитывается.
Торрент: Зарегистрирован [2017-12-23 11:23] · скачан: 89 раз
Статус: √ проверено
Размер: 3.96 GB
Как cкачать? Как скачать Отель Желание через торрент | qTorrent

% Раздел Тема Автор DL S | L
Фильмы [HD 720p, 1080p] (Звук Cam, VO, DVO) [ 1.52 GB ] Отель Желание / Hotel Desire [2011 короткометражный BDRip 720p by msltel] VO msltel Скачать
1 | 0

28-11-2019 20:33  

Отключить всю рекламу на сайте

    Дорогой пользователь! Огромная просьба, поблагодарите релизера, оцените раздачу и оставьте свои комментарий, если Вы скачали Отель Желание через торрент бесплатно! Внесите свою лепту в развитие PiratBit!
    Комментировать посты могут только пользователи прошедшие не сложную регистрацию
    Показать сообщения:    

    Отель Желание через торрент
    Скачать бесплатно Отель Желание
    Отель Желание скачать торрент
    Отель Желание смотреть онлайн
    Cкачать фильм Отель Желание бесплатно
    Отель Желание скачать торрент в хорошем качестве
    Отель Желание смотреть онлайн бесплатно в хорошем качестве


    Вы не можете начинать темы
    Вы не можете отвечать на сообщения
    Вы не можете редактировать свои сообщения
    Вы не можете удалять свои сообщения
    Вы не можете голосовать в опросах
    Вы не можете прикреплять файлы к сообщениям
    Вы можете скачивать файлы