2 сезон

iTunes

MVO

1

2 сезон

iTunes

iTunes

1 сезон

RePack

30

Новинка

ВАЖНО

ИГРА 18+

pack

RePack

MK11
pack

Легкие деньги

RePack

jed

RePack

fifa19

RePack

RDR2

RePack

NEED FOR SPEED™ PAYBACK

4 сезон

9 сезон

Бесстыжие 9 сезон

Все сериалы

все сериалы на PB.wtf

RePack

FAR CRY 5

Anonymous, доброй ночи, мы не успеваем собрать деньги на оплату серверов за декабрь и январь, помогите нам пожалуйста в это трудное время. В качестве благодарности мы отключим Вам всю рекламу на сайте (укажите свой ник в строку Ваше имя)!

×
  
Magnet ссылка

Яркость / Bright (Дэвид Эйр) [2017, фантастика, фэнтези, боевик, WEBRip] MVO [BaibaKo] pb.wtf

Яркость через торрент pb.wtf

Размер: 1.46 GB | Добавлен: 3 года назад | Торрент скачан:3454 раза
Скачать  

23-12-2017 18:32 Яркость Скачать торрент  

Яркость / Bright

Год выпуска: 2017
Страна: США
Жанр: фантастика, фэнтези, боевик, триллер, криминал
Продолжительность: 01:57:46
Перевод: Профессиональный многоголосый [BaibaKo]
Примечание: Релиз без рекламы
Режиссер: Дэвид Эйр
В ролях:

Уилл Смит (Daryl Ward), Нуми Рапас, Джоэл Эдгертон (Nick Jakoby), Люси Фрай (Tikka), Джей Эрнандес, Эдгар Рамирес, Айк Баринхолц, Вероника Нго (Tien), Хэппи Андерсон (Montehugh), Брэд Уильям Хенке (Dorghu), Андреа Наведо (Captain Perez), Доун Оливери (Sherri)
Описание:
Действие разворачивается в Лос-Анджелесе, в вымышленном фантастическом мире, где царствуют не только высокие технологии, но и магия. В городе бок о бок с людьми живут эльфы, орки и другие сверхъестественные существа. Главный герой служит в полицейском департаменте, в специальном отделе, занимающимся раскрытием преступлений, в которых замешаны магические силы. Пытаясь раскрыть очередное дело, он вынужден объединиться с орком. Вместе им предстоит найти и защитить древний мистический артефакт, обладающий могущественными способностями, от рук злоумышленников.
Рейтинг:

Качество: WEBRip
Формат: AVI
Видео: XviD, 720x304 (2.35:1), 1306 kbps, 24 fps, 0,249 bpp
Аудио: AC3 / 5.1 / 48 kHz / 384 kbps /

Общее
Полное имя : E:\Bright.2017.NF.XviD.WEBRip.BaibaKo.avi
Формат : AVI
Формат/Информация : Audio Video Interleave
Размер файла : 1,46 Гбайт
Продолжительность : 1 ч. 57 м.
Общий поток : 1769 Кбит/сек
Программа кодирования : VirtualDubMod 1.5.10.3 | www.virtualdub-fr.org || (build 2550/release)
Библиотека кодирования : VirtualDubMod build 2550/release

Видео
Идентификатор : 0
Формат : MPEG-4 Visual
Профиль формата : Advanced Simple@L5
Настройки формата : BVOP1 / Custom Matrix
Параметр BVOP формата : 1
Параметр QPel формата : Нет
Параметр GMC формата : Без точки перехода
Параметр матрицы формата : Выборочная
Идентификатор кодека : XVID
Идентификатор кодека/Подсказка : XviD
Продолжительность : 1 ч. 57 м.
Битрейт : 1306 Кбит/сек
Ширина : 720 пикселей
Высота : 304 пикселя
Соотношение сторон : 2,35:1
Частота кадров : 24,000 кадра/сек
Цветовое пространство : YUV
Субдискретизация насыщенности : 4:2:0
Битовая глубина : 8 бит
Тип развёртки : Прогрессивная
Метод сжатия : С потерями
Бит/(Пиксели*Кадры) : 0.249
Размер потока : 1,07 Гбайт (74%)
Библиотека кодирования : XviD 73

Аудио
Идентификатор : 1
Формат : AC-3
Формат/Информация : Audio Coding 3
Идентификатор кодека : 2000
Продолжительность : 1 ч. 57 м.
Вид битрейта : Постоянный
Битрейт : 384 Кбит/сек
Каналы : 6 каналов
Расположение каналов : Front: L C R, Side: L R, LFE
Частота : 48,0 КГц
Частота кадров : 31,250 кадров/сек (1536 SPF)
Битовая глубина : 16 бит
Метод сжатия : С потерями
Размер потока : 322 Мбайт (22%)
Выравнивание : Разделение по промежуткам
ServiceKind/String : Complete Main
pb.wtf



Скачать Яркость через торрент http://i3.imageban.ru/out/2017/12/23/535f01ba804e0300cdf568d2df59ce3e.jpg Скачать фильм Яркость через торрент бесплантно в хорошем качестве Описание: Действие разворачивается в Лос-Анджелесе, в вымышленном фантастическом мире, где царствуют не только высокие технологии, но и ... 9.7 10 59
Info! Золотая раздача, скачанное не засчитывается.
Торрент: Зарегистрирован [2017-12-23 18:32] · скачан: 3 454 раз
Статус: √ проверено
Размер: 1.46 GB
Как cкачать? Как скачать Яркость через торрент | UTorrent

% Раздел Тема Автор DL S | L
Фильмы 2017 [DVDrip, WEB-DLRip, HDrip] (DUB, MVO) [ 1.55 GB ] Яркость / Bright [2017 WEB-DLRip-AVC] MVO [HDRezka Studio] bober100 Скачать
3 | 0
Ultra HD (UHD: 2K, 4K, 8K) — видео сверхвысокой чёткости [ 23.32 GB ] Яркость / Bright [2017 UHD WEBRip 2160p] MVO [BaibaKo] + ENG + Subs Loc387 Скачать
1 | 0
Ultra HD (UHD: 2K, 4K, 8K) — видео сверхвысокой чёткости [ 11.78 GB ] Яркость / Bright [2017 UHD WEBRip 2160p] 6xMVO sheker187 Скачать
2 | 0
Фильмы (WEB-DL 720p, 1080p) [ 6.98 GB ] Яркость / Bright [2017 WEBRip 1080p] MVO [Jaskier] bober100 Скачать
3 | 0
Фильмы (WEB-DL 720p, 1080p) [ 3.62 GB ] Яркость / Bright [2017 WEBRip 720p] MVO [Jaskier] bober100 Скачать
2 | 0
Фильмы 2017 [DVDrip, WEB-DLRip, HDrip] (DUB, MVO) [ 1.46 GB ] Яркость / Bright [2017 WEBRip] MVO [Jaskier] bober100 Скачать
1 | 0
Фильмы (WEB-DL 720p, 1080p) [ 3.52 GB ] Яркость / Bright [2017 WEBRip 720p] MVO [HDrezka Studio] WorldSM Скачать
1 | 0


Последний раз редактировалось: -Lexx- (2017-12-26 11:36), всего редактировалось 1 раз

28-11-2019 20:33  

Отключить всю рекламу на сайте

23-12-2017 19:09 Яркость Скачать торрент  

после фильма "Призрачный патруль" это 2-ой фильм который держит до конца =)pb.wtf



23-12-2017 20:38 Яркость Скачать торрент  

чушь редкостная,... и игра актеров также полная ЛАЖА!pb.wtf



24-12-2017 02:53 Яркость Скачать торрент  

Zool писал(а):

после фильма "Призрачный патруль" это 2-ой фильм который держит до конца =)

да они оба те еще хиты. хотя этот я досмотрел до конца, в отличии от призрачного патруля. не то чтобы совсем г., но и не так чтоб прям не оторвешься от просмотра. 5 из десяти.pb.wtf



24-12-2017 10:36 Яркость Скачать торрент  

В сраку с рекламой! Эти казино уже тошнит прям!pb.wtf



24-12-2017 10:45 Яркость Скачать торрент  

Jekka70, читай внимательно описание, специально другим цветом выделено, релиз без рекламы.pb.wtf



24-12-2017 15:37 Яркость Скачать торрент  

обалденный фильмpb.wtf



24-12-2017 16:16 Яркость Скачать торрент  

зачетное кинцо. Смит лучшийpb.wtf



04-01-2018 14:10 Яркость Скачать торрент  

фильм очень неплохой, надо было с продолжением снимать, хотя может что и придумают.pb.wtf



07-01-2018 21:40 Яркость Скачать торрент  

Фильм охрененный.pb.wtf



    Дорогой пользователь! Огромная просьба, поблагодарите релизера, оцените раздачу и оставьте свои комментарий, если Вы скачали Яркость через торрент бесплатно! Внесите свою лепту в развитие PiratBit!
    Комментировать посты могут только пользователи прошедшие не сложную регистрацию
    Показать сообщения:    

    Яркость через торрент
    Скачать бесплатно Яркость
    Яркость скачать торрент
    Яркость смотреть онлайн
    Cкачать фильм Яркость бесплатно
    Яркость скачать торрент в хорошем качестве
    Яркость смотреть онлайн бесплатно в хорошем качестве


    Вы не можете начинать темы
    Вы не можете отвечать на сообщения
    Вы не можете редактировать свои сообщения
    Вы не можете удалять свои сообщения
    Вы не можете голосовать в опросах
    Вы не можете прикреплять файлы к сообщениям
    Вы можете скачивать файлы