Ссылка на приватное зеркало нашего сайта всего за 1$. Внимание количество ограничено!!!

2 сезон

iTunes

1 сезон

1

2 сезон

2 сезон

iTunes

1 сезон

RePack

30

Ultimate

ВАЖНО

ИГРА 18+

pack

RePack

MK11
pack

Забери бонус

RePack

jed

!!Акция!!

Alien_Rage

RePack

fifa19

RePack

Assassins Creed: Odyssey

RePack

NEED FOR SPEED™ PAYBACK

4 сезон

9 сезон

Бесстыжие 9 сезон

Все сериалы

все сериалы на PB.wtf

RePack

FAR CRY 5
  

Яркость / Bright (Дэвид Эйр) [2017, фантастика, фэнтези, боевик, WEBRip 720p] MVO [BaibaKo] pb.wtf

Яркость через торрент pb.wtf

Раздают: 1 [ 0 KB/s ]
Размер: 3.52 GB | Добавлен: 2 года 11 мес. назад | Торрент скачан:2180 раз
Скачать  

23-12-2017 19:01 Яркость Скачать торрент  

Яркость / Bright

Год выпуска: 2017
Страна: США
Жанр: фантастика, фэнтези, боевик, триллер, криминал
Продолжительность: 01:57:46
Перевод: Профессиональный многоголосый [BaibaKo]
Примечание: Релиз без рекламы
Субтитры: английские
Режиссер: Дэвид Эйр
В ролях:

Уилл Смит (Daryl Ward), Нуми Рапас, Джоэл Эдгертон (Nick Jakoby), Люси Фрай (Tikka), Джей Эрнандес, Эдгар Рамирес, Айк Баринхолц, Вероника Нго (Tien), Хэппи Андерсон (Montehugh), Брэд Уильям Хенке (Dorghu), Андреа Наведо (Captain Perez), Доун Оливери (Sherri)
Описание:
Действие разворачивается в Лос-Анджелесе, в вымышленном фантастическом мире, где царствуют не только высокие технологии, но и магия. В городе бок о бок с людьми живут эльфы, орки и другие сверхъестественные существа. Главный герой служит в полицейском департаменте, в специальном отделе, занимающимся раскрытием преступлений, в которых замешаны магические силы. Пытаясь раскрыть очередное дело, он вынужден объединиться с орком. Вместе им предстоит найти и защитить древний мистический артефакт, обладающий могущественными способностями, от рук злоумышленников.
Рейтинг:

Качество: WEBRip 720p
Формат: MKV
Видео: AVC, 1280x536 (2.40:1), 3425 kbps, 24 fps, 0,208 bpp
Аудио #1: русский, AC3 / 5.1 / 48 kHz / 384 kbps / - MVO
Аудио #2: английский, AC3 / 5.1 / 48 kHz / 384 kbps / - Оригинал

Общее
Уникальный идентификатор : 206988170974272620877385763507434589217 (0x9BB878BECC01A653865A3DC599068C21)
Полное имя : D:\Загрузки\Bright.2017.720p.NF.WEBRip.DDP5.1.x264.BaibaKo.mkv
Формат : Matroska
Версия формата : Version 2
Размер файла : 3,52 Гбайт
Продолжительность : 1 ч. 57 м.
Общий поток : 4278 Кбит/сек
Дата кодирования : UTC 2017-12-23 16:52:03
Программа кодирования : mkvmerge v7.8.0 ('River Man') 32bit built on Apr 3 2015 12:11:22
Библиотека кодирования : libebml v1.3.1 + libmatroska v1.4.2

Видео
Идентификатор : 1
Формат : AVC
Формат/Информация : Advanced Video Codec
Профиль формата : High@L4.1
Настройки формата : CABAC / 12 Ref Frames
Параметр CABAC формата : Да
Параметр RefFrames формата : 12 кадров
Идентификатор кодека : V_MPEG4/ISO/AVC
Продолжительность : 1 ч. 57 м.
Битрейт : 3425 Кбит/сек
Ширина : 1280 пикселей
Высота : 536 пикселей
Соотношение сторон : 2,40:1
Режим частоты кадров : Постоянный
Частота кадров : 24,000 кадра/сек
Цветовое пространство : YUV
Субдискретизация насыщенности : 4:2:0
Битовая глубина : 8 бит
Тип развёртки : Прогрессивная
Бит/(Пиксели*Кадры) : 0.208
Размер потока : 2,82 Гбайт (80%)
Библиотека кодирования : x264 core 152 r2851kMod ba24899
Настройки программы : cabac=1 / ref=12 / deblock=1:-3:-3 / analyse=0x3:0x133 / me=umh / subme=10 / psy=1 / fade_compensate=0.00 / psy_rd=1.00:0.00 / mixed_ref=1 / me_range=48 / chroma_me=1 / trellis=2 / 8x8dct=1 / cqm=0 / deadzone=21,11 / fast_pskip=0 / chroma_qp_offset=-2 / threads=12 / lookahead_threads=2 / sliced_threads=0 / nr=0 / decimate=0 / interlaced=0 / bluray_compat=0 / constrained_intra=0 / bframes=8 / b_pyramid=2 / b_adapt=2 / b_bias=0 / direct=3 / weightb=1 / open_gop=0 / weightp=2 / keyint=250 / keyint_min=24 / scenecut=40 / intra_refresh=0 / rc=crf / mbtree=0 / crf=16.0000 / qcomp=0.60 / qpmin=0 / qpmax=69 / qpstep=4 / ip_ratio=1.30 / pb_ratio=1.20 / aq=3:0.80
Язык : English
Default : Да
Forced : Нет

Аудио #1
Идентификатор : 2
Формат : AC-3
Формат/Информация : Audio Coding 3
Идентификатор кодека : A_AC3
Продолжительность : 1 ч. 57 м.
Вид битрейта : Постоянный
Битрейт : 384 Кбит/сек
Каналы : 6 каналов
Расположение каналов : Front: L C R, Side: L R, LFE
Частота : 48,0 КГц
Частота кадров : 31,250 кадров/сек (1536 SPF)
Битовая глубина : 16 бит
Метод сжатия : С потерями
Размер потока : 323 Мбайт (9%)
Заголовок : BaibaKo
Язык : Russian
ServiceKind/String : Complete Main
Default : Да
Forced : Нет

Аудио #2
Идентификатор : 3
Формат : AC-3
Формат/Информация : Audio Coding 3
Идентификатор кодека : A_AC3
Продолжительность : 1 ч. 57 м.
Вид битрейта : Постоянный
Битрейт : 384 Кбит/сек
Каналы : 6 каналов
Расположение каналов : Front: L C R, Side: L R, LFE
Частота : 48,0 КГц
Частота кадров : 31,250 кадров/сек (1536 SPF)
Битовая глубина : 16 бит
Метод сжатия : С потерями
Размер потока : 323 Мбайт (9%)
Язык : English
ServiceKind/String : Complete Main
Default : Нет
Forced : Нет

Текст #1
Идентификатор : 4
Формат : UTF-8
Идентификатор кодека : S_TEXT/UTF8
Идентификатор кодека/Информация : UTF-8 Plain Text
Язык : English
Default : Нет
Forced : Нет

Текст #2
Идентификатор : 5
Формат : UTF-8
Идентификатор кодека : S_TEXT/UTF8
Идентификатор кодека/Информация : UTF-8 Plain Text
Заголовок : SDH
Язык : English
Default : Нет
Forced : Нет
pb.wtf



Скачать Яркость через торрент http://i3.imageban.ru/out/2017/12/23/535f01ba804e0300cdf568d2df59ce3e.jpg Скачать фильм Яркость через торрент бесплантно в хорошем качестве Описание: Действие разворачивается в Лос-Анджелесе, в вымышленном фантастическом мире, где царствуют не только высокие технологии, но и ... 9.5 10 30
Info! Золотая раздача, скачанное не засчитывается.
Торрент: Зарегистрирован [2017-12-23 19:01] · скачан: 2 180 раз
Статус: √ проверено
Размер: 3.52 GB
Как cкачать? Как скачать Яркость через торрент | qTorrent

% Раздел Тема Автор DL S | L
Фильмы 2017 [DVDrip, WEB-DLRip, HDrip] (DUB, MVO) [ 1.55 GB ] Яркость / Bright [2017 WEB-DLRip-AVC] MVO [HDRezka Studio] bober100 Скачать
1 | 0
Ultra HD (UHD: 2K, 4K, 8K) — видео сверхвысокой чёткости [ 23.32 GB ] Яркость / Bright [2017 UHD WEBRip 2160p] MVO [BaibaKo] + ENG + Subs Loc387 Скачать
1 | 0
Ultra HD (UHD: 2K, 4K, 8K) — видео сверхвысокой чёткости [ 11.78 GB ] Яркость / Bright [2017 UHD WEBRip 2160p] 6xMVO sheker187 Скачать
2 | 0
Фильмы (WEB-DL 720p, 1080p) [ 6.98 GB ] Яркость / Bright [2017 WEBRip 1080p] MVO [Jaskier] bober100 Скачать
2 | 0
Фильмы (WEB-DL 720p, 1080p) [ 3.62 GB ] Яркость / Bright [2017 WEBRip 720p] MVO [Jaskier] bober100 Скачать
2 | 0
Фильмы 2017 [DVDrip, WEB-DLRip, HDrip] (DUB, MVO) [ 1.46 GB ] Яркость / Bright [2017 WEBRip] MVO [Jaskier] bober100 Скачать
1 | 0
Фильмы (WEB-DL 720p, 1080p) [ 3.52 GB ] Яркость / Bright [2017 WEBRip 720p] MVO [HDrezka Studio] WorldSM Скачать
1 | 0

28-11-2019 20:33  

Отключить всю рекламу на сайте

24-12-2017 07:39 Яркость Скачать торрент  

Бед бойс под травами! хреньpb.wtf



24-12-2017 14:22 Яркость Скачать торрент  

Замечательный фильм. Смотрелось на одном дыхании. Давненько так задумчиво не смотрел. За счет того, что в фильме по началу многое не понятно, фильм заинтриговал на 1 минуте и не отпускал до последней минуты. К тому же игра актеров на высоте. Давно Уилл Смит не снимался в хорошем фильме.pb.wtf



26-12-2017 19:18 Яркость Скачать торрент  

Хороший фильм. Автору спс!!!pb.wtf



08-02-2018 15:06 Яркость Скачать торрент  

Какая чушь. Позабавило только то, что теперь вместо негров - орки.pb.wtf



    Дорогой пользователь! Огромная просьба, поблагодарите релизера, оцените раздачу и оставьте свои комментарий, если Вы скачали Яркость через торрент бесплатно! Внесите свою лепту в развитие PiratBit!
    Комментировать посты могут только пользователи прошедшие не сложную регистрацию
    Показать сообщения:    

    Яркость через торрент
    Скачать бесплатно Яркость
    Яркость скачать торрент
    Яркость смотреть онлайн
    Cкачать фильм Яркость бесплатно
    Яркость скачать торрент в хорошем качестве
    Яркость смотреть онлайн бесплатно в хорошем качестве


    Вы не можете начинать темы
    Вы не можете отвечать на сообщения
    Вы не можете редактировать свои сообщения
    Вы не можете удалять свои сообщения
    Вы не можете голосовать в опросах
    Вы не можете прикреплять файлы к сообщениям
    Вы можете скачивать файлы