Ссылка на приватное зеркало нашего сайта всего за 1$. Внимание количество ограничено!!!

2 сезон

iTunes

1 сезон

1

2 сезон

2 сезон

iTunes

1 сезон

RePack

30

Новинка

ВАЖНО

ИГРА 18+

pack

RePack

MK11
pack

Забери бонус

RePack

jed

!!Акция!!

Alien_Rage

RePack

fifa19

RePack

Assassins Creed: Odyssey

RePack

NEED FOR SPEED™ PAYBACK

4 сезон

9 сезон

Бесстыжие 9 сезон

Все сериалы

все сериалы на PB.wtf

RePack

FAR CRY 5
  

Долгая дорога домой / The Long Road Home / Сезон: / Серии 1-8 из 8 (Фил Абрахам, Микаэл Саломон) [2017, США, драма, военный, WEB-DLRip] MVO [BaibaKo] pb.wtf

Долгая дорога домой через торрент pb.wtf

Качают: 1 [ 0 KB/s ]
Размер: 4.41 GB | Добавлен: 2 года 11 мес. назад | Торрент скачан:59 раз
Скачать  

24-12-2017 01:52 Долгая дорога домой Скачать торрент  


Долгая дорога домой / The Long Road Home



  • Год выпуска: 2017
  • Страна: США
  • Жанр: драма, военный
  • Продолжительность: ~ 00:50:00 (Серия)
  • Перевод: Профессиональный многоголосый [BaibaKo]
  • Режиссер: Фил Абрахам, Микаэл Саломон
  • В ролях:
    Э.Дж. Бонилья, Джон Биверс, Джош Блейлок, Джошуа Бреннан, Хорхе Диас, Дариус Хомайоун, Джозеф Лутман, Томас МакДонелл и др.



  • Сериал рассказывает о событиях 4 апреля 2004 года, когда американские войска попали в засаду в пригороде Багдада, потеряв восьмерых человек. Этот день в Штатах стали называть Чёрным воскресеньем.
  • Рейтинг:

    rating
  • Качество: WEB-DLRip
  • Формат: :AVI
  • Видео кодек: XviD
  • Аудио кодек: MP3
  • Видео: 1445 Кбит/сек, 720*400 (16:9), в 23,976 (24000/1001) кадра/сек, MPEG-4 Visual (XviD)
  • Аудио №1: русский 192 Кбит/сек, 48,0 КГц, 2 канала, MPEG Audio (MP3) |[BaibaKo]|
  • Релиз от: GEKADOL

    Общее
    Полное имя : F:\Долгая дорога домой (The Long Road Home) XviD\The.Long.Road.Home.s01e08.WEB-DLRip.XviD.Rus.Eng.BaibaKo.tv.avi
    Формат : AVI
    Формат/Информация : Audio Video Interleave
    Размер файла : 596 Мбайт
    Продолжительность : 50 м. 36 с.
    Общий поток : 1647 Кбит/сек
    Библиотека кодирования : Boilsoft AVI tool build 30012/release

    Видео
    Идентификатор : 0
    Формат : MPEG-4 Visual
    Профиль формата : Advanced Simple@L5
    Настройки формата : BVOP2
    Параметр BVOP формата : 2
    Параметр QPel формата : Нет
    Параметр GMC формата : Без точки перехода
    Параметр матрицы формата : Default (H.263)
    Идентификатор кодека : XVID
    Идентификатор кодека/Подсказка : XviD
    Продолжительность : 50 м. 36 с.
    Битрейт : 1445 Кбит/сек
    Ширина : 720 пикселей
    Высота : 400 пикселей
    Соотношение сторон : 16:9
    Частота кадров : 23,976 (24000/1001) кадра/сек
    Цветовое пространство : YUV
    Субдискретизация насыщенности : 4:2:0
    Битовая глубина : 8 бит
    Тип развёртки : Прогрессивная
    Метод сжатия : С потерями
    Бит/(Пиксели*Кадры) : 0.209
    Размер потока : 523 Мбайт (88%)
    Библиотека кодирования : XviD 67

    Аудио
    Идентификатор : 1
    Формат : MPEG Audio
    Версия формата : Version 1
    Профиль формата : Layer 3
    Настройки формата : Joint stereo / MS Stereo
    Идентификатор кодека : 55
    Идентификатор кодека/Подсказка : MP3
    Продолжительность : 50 м. 36 с.
    Вид битрейта : Постоянный
    Битрейт : 192 Кбит/сек
    Каналы : 2 канала
    Частота : 48,0 КГц
    Метод сжатия : С потерями
    Задержка видео : 18 мс.
    Размер потока : 69,5 Мбайт (12%)
    Выравнивание : Разделение по промежуткам
    Продолжительность промежутка : 42 мс. (1,00 видеокадр)
    Время предзагрузки промежутка : 500 мс.
    Библиотека кодирования : LAME3.99@‚ЫЫSKа«





    Скриншоты:
    скриншот   скриншот   скриншот   скриншот   скриншот   скриншот   скриншот  
    скриншот  


    pb.wtf



  • Скачать Долгая дорога домой через торрент http://pic1.kartinco.top/images/11/7m1mn.jpg Скачать фильм Долгая дорога домой через торрент бесплантно в хорошем качестве qw.png Сериал рассказывает о событиях 4 апреля 2004 года, когда американские войска попали в засаду в пригороде Багдада, потеряв ... 9.5 10 4
    Info! Золотая раздача, скачанное не засчитывается.
    Торрент: Зарегистрирован [2017-12-24 01:52] · скачан: 59 раз
    Статус: √ проверено
    Размер: 4.41 GB
    Как cкачать? Как скачать Долгая дорога домой через торрент | qTorrent

    % Раздел Тема Автор DL S | L
    Зарубежные сериалы [ 16.1 GB ] Долгая дорога домой / The Long Road Home / Сезон: / Серии 1-8 из 8 [2017 военный WEB-DLRip 1080p] MVO [BaibaKo] GEKADOL Скачать
    1 | 0

    28-11-2019 20:33  

    Отключить всю рекламу на сайте

      Дорогой пользователь! Огромная просьба, поблагодарите релизера, оцените раздачу и оставьте свои комментарий, если Вы скачали Долгая дорога домой через торрент бесплатно! Внесите свою лепту в развитие PiratBit!
      Комментировать посты могут только пользователи прошедшие не сложную регистрацию
      Показать сообщения:    

      Долгая дорога домой через торрент
      Скачать бесплатно Долгая дорога домой
      Долгая дорога домой скачать торрент
      Долгая дорога домой смотреть онлайн
      Cкачать фильм Долгая дорога домой бесплатно
      Долгая дорога домой скачать торрент в хорошем качестве
      Долгая дорога домой смотреть онлайн бесплатно в хорошем качестве


      Вы не можете начинать темы
      Вы не можете отвечать на сообщения
      Вы не можете редактировать свои сообщения
      Вы не можете удалять свои сообщения
      Вы не можете голосовать в опросах
      Вы не можете прикреплять файлы к сообщениям
      Вы можете скачивать файлы