2 сезон

iTunes

MVO

1

2 сезон

iTunes

iTunes

1 сезон

RePack

30

Новинка

ВАЖНО

ИГРА 18+

pack

RePack

MK11
pack

Легкие деньги

RePack

jed

RePack

fifa19

RePack

RDR2

RePack

NEED FOR SPEED™ PAYBACK

4 сезон

9 сезон

Бесстыжие 9 сезон

Все сериалы

все сериалы на PB.wtf

RePack

FAR CRY 5

Anonymous, добрый вечер, мы не успеваем собрать деньги на оплату серверов за декабрь и январь, помогите нам пожалуйста в это трудное время. В качестве благодарности мы отключим Вам всю рекламу на сайте (укажите свой ник в строку Ваше имя)!

×
  
Magnet ссылка

Исход: Цари и боги / Exodus: Gods and Kings (Ридли Скотт) [2012, Драма, боевик, приключения, UHD BDRemux 2160p] Дубляж - [Лицензия] pb.wtf

Исход: Цари и боги через торрент pb.wtf

Размер: 38.42 GB | Добавлен: 3 года назад | Торрент скачан:82 раза
Скачать  

24-12-2017 03:31 Исход: Цари и боги Скачать торрент  

Исход: Цари и боги / Exodus: Gods and Kings«Он бросил вызов империи и изменил мир»
Год выпуска: 2012
Страна: Великобритания, США, Испания
Жанр: Драма, боевик, приключения, пеплум, экранизация
Продолжительность: 02:30:20
Перевод: Дублированный | Лицензия
Субтитры: Русские (Forced, Full), английские (Full, SDH)
Режиссер: Ридли Скотт
В ролях:

Кристиан Бэйл (Moses), Джоэл Эдгертон (Ramses), Джон Туртурро (Seti), Аарон Пол (Joshua), Бен Мендельсон (Viceroy Hegep), Мария Вальверде (Zipporah), Сигурни Уивер (Tuya), Бен Кингсли (Nun), Исаак Эндрюс (Malak), Хиам Аббасс (Bithia), Индира Варма (High Priestess), Юэн Бремнер (Expert)
Описание:
Ветхозаветная история о великом пророке Моисее и освобождении еврейского народа из египетского плена. Моисей появился на свет в те времена, когда фараон приказал убивать всех новорожденных мальчиков еврейского происхождения. Чтобы спасти его, мать положила малыша в корзину из тростника и отправила вниз по Нилу. Ребенка нашла дочь фараона, которая усыновила его и растила рядом с Рамзесом — будущим фараоном. Много лет спустя, став мужчиной, Моисей бежит из Египта, а затем возвращается туда по велению Господа, чтобы избавить свой народ от оков рабства…
Рейтинг:

Качество: UHD BDRemux 2160p
Формат: MKV
Видео: MPEG-H HEVC HDR Video, 3840x2160, 30.3 Mbit/s, 23.976 fps
Аудио #01: 48 kHz, DTS, 5.1, 768 Kbps | Дублированный | RUS |
Аудио #02: 48 kHz, DTS-HD MA, 7.1, 5509 Kbps | Оригинал | ENG |
Навигация по главам: есть
General
Unique ID : 225934029594519622869400979971934346171 (0xA9F94FB1B2D89FE2A593E1EC0B655BBB)
Complete name : F:VideoExodus.Gods.and.Kings.2014.BDREMUX.2160p.4K.UltraHD.HEVC.HDR.ExKinoRay.mkv
Format : Matroska
Format version : Version 4 / Version 2
File size : 38.4 GiB
Duration : 2 h 30 min
Overall bit rate : 36.6 Mb/s
Movie name : Exodus: Gods and Kings 2014 from ExKinoRay
Encoded date : UTC 2017-12-24 02:00:07
Writing application : mkvmerge v19.0.0 ('Brave Captain') 64-bit
Writing library : libebml v1.3.5 + libmatroska v1.4.8

Video
ID : 1
Format : HEVC
Format/Info : High Efficiency Video Coding
Format profile : Main 10@L5.1@High
Codec ID : V_MPEGH/ISO/HEVC
Duration : 2 h 30 min
Bit rate : 30.3 Mb/s
Width : 3 840 pixels
Height : 2 160 pixels
Display aspect ratio : 16:9
Frame rate mode : Constant
Frame rate : 23.976 (24000/1001) FPS
Color space : YUV
Chroma subsampling : 4:2:0 (Type 2)
Bit depth : 10 bits
Bits/(Pixel*Frame) : 0.152
Stream size : 31.8 GiB (83%)
Writing library : ATEME Titan KFE 3.7.3 (4.7.3.1001)
Language : English
Default : Yes
Forced : No
Color range : Limited
Color primaries : BT.2020
Transfer characteristics : PQ
Matrix coefficients : BT.2020 non-constant
Mastering display color pri : R: x=0.680000 y=0.320000, G: x=0.265000 y=0.690000, B: x=0.150000 y=0.060000, White point: x=0.312700 y=0.329000
Mastering display luminance : min: 0.0000 cd/m2, max: 1100.0000 cd/m2

Audio #1
ID : 2
Format : DTS
Format/Info : Digital Theater Systems
Codec ID : A_DTS
Duration : 2 h 30 min
Bit rate mode : Constant
Bit rate : 768 kb/s
Channel(s) : 6 channels
Channel positions : Front: L C R, Side: L R, LFE
Sampling rate : 48.0 kHz
Frame rate : 93.750 FPS (512 SPF)
Bit depth : 24 bits
Compression mode : Lossy
Stream size : 825 MiB (2%)
Title : Dub [License]
Language : Russian
Default : Yes
Forced : No

Audio #2
ID : 3
Format : DTS
Format/Info : Digital Theater Systems
Format profile : MA / Core
Codec ID : A_DTS
Duration : 2 h 30 min
Bit rate mode : Variable / Constant
Bit rate : 5 509 kb/s / 1 509 kb/s
Channel(s) : 8 channels / 6 channels
Channel positions : Front: L C R, Side: L R, Back: L R, LFE / Front: L C R, Side: L R, LFE
Sampling rate : 48.0 kHz
Frame rate : 93.750 FPS (512 SPF)
Bit depth : 24 bits
Compression mode : Lossless / Lossy
Stream size : 5.79 GiB (15%)
Title : Original
Language : English
Default : No
Forced : No

Text #1
ID : 4
Format : UTF-8
Codec ID : S_TEXT/UTF8
Codec ID/Info : UTF-8 Plain Text
Duration : 2 h 29 min
Bit rate : 0 b/s
Count of elements : 12
Stream size : 667 Bytes (0%)
Title : Forced
Language : Russian
Default : Yes
Forced : No

Text #2
ID : 5
Format : UTF-8
Codec ID : S_TEXT/UTF8
Codec ID/Info : UTF-8 Plain Text
Duration : 2 h 29 min
Bit rate : 45 b/s
Count of elements : 1267
Stream size : 50.2 KiB (0%)
Title : Full
Language : Russian
Default : No
Forced : No

Text #3
ID : 6
Format : UTF-8
Codec ID : S_TEXT/UTF8
Codec ID/Info : UTF-8 Plain Text
Duration : 2 h 19 min
Bit rate : 29 b/s
Count of elements : 1300
Stream size : 30.2 KiB (0%)
Title : Full
Language : English
Default : No
Forced : No

Text #4
ID : 7
Format : UTF-8
Codec ID : S_TEXT/UTF8
Codec ID/Info : UTF-8 Plain Text
Duration : 2 h 21 min
Bit rate : 36 b/s
Count of elements : 1646
Stream size : 37.4 KiB (0%)
Title : SDH
Language : English
Default : No
Forced : No

Menu
00:00:00.000 : en:1
00:03:54.000 : en:2
00:06:50.000 : en:3
00:11:46.000 : en:4
00:14:27.000 : en:5
00:18:35.000 : en:6
00:22:13.000 : en:7
00:26:48.000 : en:8
00:30:28.000 : en:9
00:36:38.000 : en:10
00:40:44.000 : en:11
00:44:46.000 : en:12
00:48:43.000 : en:13
00:51:12.000 : en:14
00:54:17.000 : en:15
00:57:28.000 : en:16
01:00:26.000 : en:17
01:04:36.000 : en:18
01:06:44.000 : en:19
01:10:56.000 : en:20
01:16:48.000 : en:21
01:21:12.000 : en:22
01:24:24.000 : en:23
01:28:02.000 : en:24
01:30:47.000 : en:25
01:34:07.000 : en:26
01:37:13.000 : en:27
01:39:13.000 : en:28
01:42:33.000 : en:29
01:46:42.000 : en:30
01:48:55.000 : en:31
01:52:10.000 : en:32
01:57:21.000 : en:33
02:00:15.000 : en:34
02:05:32.000 : en:35
02:07:22.000 : en:36
02:13:29.000 : en:37
02:16:12.000 : en:38
02:19:30.000 : en:39
02:23:10.000 : en:40
pb.wtf



Скачать Исход: Цари и боги через торрент http://i100.fastpic.ru/big/2017/1224/ab/6741a67c71e5e03be724ae3d6c6a47ab.png Скачать фильм Исход: Цари и боги через торрент бесплантно в хорошем качестве Описание: Ветхозаветная история о великом пророке Моисее и освобождении еврейского народа из египетского плена. Моисей появился на свет в ... 10 10 6
Info! Золотая раздача, скачанное не засчитывается.
Торрент: Зарегистрирован [2017-12-24 03:31] · скачан: 82 раз
Статус: √ проверено
Размер: 38.42 GB
Как cкачать? Как скачать Исход: Цари и боги через торрент | UTorrent

28-11-2019 20:33  

Отключить всю рекламу на сайте

    Дорогой пользователь! Огромная просьба, поблагодарите релизера, оцените раздачу и оставьте свои комментарий, если Вы скачали Исход: Цари и боги через торрент бесплатно! Внесите свою лепту в развитие PiratBit!
    Комментировать посты могут только пользователи прошедшие не сложную регистрацию
    Показать сообщения:    

    Исход: Цари и боги через торрент
    Скачать бесплатно Исход: Цари и боги
    Исход: Цари и боги скачать торрент
    Исход: Цари и боги смотреть онлайн
    Cкачать фильм Исход: Цари и боги бесплатно
    Исход: Цари и боги скачать торрент в хорошем качестве
    Исход: Цари и боги смотреть онлайн бесплатно в хорошем качестве


    Вы не можете начинать темы
    Вы не можете отвечать на сообщения
    Вы не можете редактировать свои сообщения
    Вы не можете удалять свои сообщения
    Вы не можете голосовать в опросах
    Вы не можете прикреплять файлы к сообщениям
    Вы можете скачивать файлы