Доктор Стрэндж

Лицензия

Добыча

Дубляж

Дом дракона

1 сезон

Тор

Дубляж

В эфире

Дубляж

Там, где раки поют

MVO

Властелин колец

1 сезон

GLOBAL

pack

Рекомендуем

30

Пиратка

ВАЖНО

ВАЖНО

Ghostwire

Пиратка

jed

RePack

nioh2

RePack

RDR2

RePack

NEED FOR SPEED™ PAYBACK

RePack

скачать торрент

Кинопоиск HD

Острые козырьки 6 сезон

6 сезон

FAR CRY 6

RePack

скачать торрент

Лицензия

скачать торрент

MVO

1

1 сезон

скачать торрент

1 сезон

скачать торрент

Лицензия

  

В ночи / Into the Night (Джон Лэндис) [1985, триллер, драма, комедия, BDRip 1080p ] MVO, DVO

В ночи через торрент pb.wtf

Размер: 14.03 GB | Добавлен: 4 года 11 мес. назад | Торрент скачан:7 раз
Смотреть онлайн | Скачать   

24-12-2017 07:10 В ночи Скачать торрент  

Название: В ночи
Оригинальное название: Into the Night
Год выпуска: 1985
Страна: США
Жанр: триллер, драма, комедия
Продолжительность: 01:54:56
Перевод: профессиональный многоголосый, профессиональный двухголосый

Режиссер: Джон Лэндис
В ролях: Джефф Голдблюм, Мишель Пфайффер, Ирен Папас, Кэтрин Харролд, Дэвид Боуи, Дэн Эйкройд, Стэйси Пикрен, Кармен Ардженциано, Сью Дуган, Роберт Пэйнтер, Роберт Моберли, Джон Хостеттер, Дик Балдуцци, Джон Лэндис, Хоуп Кларк, Эрик Ли, Джэйк Стейнфелд, Сью Баузер, Уальдо Солт, Виола Кейтс Стимпсон, Брюс МакГилл, Диди Пфайффер, Рик Бэйкер, Дэниэл Петри

Описание: Жизнь Эда Оркина скучна и уныла: его мучает бессонница, нудная работа не доставляет никакого удовольствия, жена постоянно обманывает, но однажды ночью всё меняется. Встреча в аэропорту Лос-Анджелеса с красавицей Дайаной, которая буквально сваливается на капот его автомобиля, становится роковой. Вместе с загадочной блондинкой Эд, сам того не желая, попадает в самый центр международного заговора...



Качество: BDRip 1080p
Формат: MKV
Видео: MPEG-4 AVC, 15.6 Mбит/с, 1920x1040
Аудио 1: русский, AC3, 192 kbps, 2 ch, 48 kHz [профессиональный многоголосый, OPT]
Аудио 2: русский, AC3, 192 kbps, 2 ch, 48 kHz [профессиональный двухголосый]
Аудио 3: английский, DTS, 1509 kbps, 2 ch, 48 kHz [оригинал]
Субтитры: английские
Неименованные главы/чаптеры.
Общее
Уникальный идентификатор : 194105686137145465436424069938390326494 (0x920765346525B7E3969785E1059D5CDE)
Полное имя : D:\Video\В ночи.1985.BDRip.1080p by msltel.mkv
Формат : Matroska
Версия формата : Version 4 / Version 2
Размер файла : 14,0 Гбайт
Продолжительность : 1 ч. 54 м.
Общий поток : 17,5 Мбит/сек
Название фильма : Rip by msltel
Дата кодирования : UTC 2017-12-24 05:49:56
Программа кодирования : mkvmerge v8.2.0 ('World of Adventure') 64bit
Библиотека кодирования : libebml v1.3.1 + libmatroska v1.4.2

Видео
Идентификатор : 1
Формат : AVC
Формат/Информация : Advanced Video Codec
Профиль формата : [email protected]
Настройки формата : CABAC / 4 Ref Frames
Параметр CABAC формата : Да
Параметр RefFrames формата : 4 кадра
Идентификатор кодека : V_MPEG4/ISO/AVC
Продолжительность : 1 ч. 54 м.
Битрейт : 15,6 Мбит/сек
Ширина : 1920 пикселей
Высота : 1040 пикселей
Соотношение сторон : 1,85:1
Режим частоты кадров : Постоянный
Частота кадров : 23,976 (24000/1001) кадра/сек
Цветовое пространство : YUV
Субдискретизация насыщенности : 4:2:0
Битовая глубина : 8 бит
Тип развёртки : Прогрессивная
Бит/(Пиксели*Кадры) : 0.325
Размер потока : 12,5 Гбайт (89%)
Библиотека кодирования : x264 core 146 r2538 121396c
Настройки программы : cabac=1 / ref=4 / deblock=1:-3:-2 / analyse=0x3:0x113 / me=umh / subme=11 / psy=1 / psy_rd=1.00:0.15 / mixed_ref=1 / me_range=32 / chroma_me=1 / trellis=2 / 8x8dct=1 / cqm=0 / deadzone=21,11 / fast_pskip=0 / chroma_qp_offset=-3 / threads=6 / lookahead_threads=1 / sliced_threads=0 / nr=0 / decimate=1 / interlaced=0 / bluray_compat=0 / constrained_intra=0 / bframes=12 / b_pyramid=2 / b_adapt=2 / b_bias=0 / direct=1 / weightb=1 / open_gop=0 / weightp=2 / keyint=230 / keyint_min=23 / scenecut=40 / intra_refresh=0 / rc_lookahead=40 / rc=crf / mbtree=0 / crf=17.8 / qcomp=0.60 / qpmin=0 / qpmax=69 / qpstep=4 / vbv_maxrate=62500 / vbv_bufsize=78125 / crf_max=0.0 / nal_hrd=none / filler=0 / ip_ratio=1.40 / pb_ratio=1.30 / aq=1:1.00
Язык : English
Default : Да
Forced : Нет

Аудио #1
Идентификатор : 2
Формат : AC-3
Формат/Информация : Audio Coding 3
Идентификатор кодека : A_AC3
Продолжительность : 1 ч. 54 м.
Вид битрейта : Постоянный
Битрейт : 192 Кбит/сек
Каналы : 2 канала
Расположение каналов : Front: L R
Частота : 48,0 КГц
Частота кадров : 31,250 кадров/сек (1536 SPF)
Битовая глубина : 16 бит
Метод сжатия : С потерями
Размер потока : 158 Мбайт (1%)
Заголовок : MVO.OPT
Язык : Russian
ServiceKind/String : Complete Main
Default : Да
Forced : Нет

Аудио #2
Идентификатор : 3
Формат : AC-3
Формат/Информация : Audio Coding 3
Идентификатор кодека : A_AC3
Продолжительность : 1 ч. 54 м.
Вид битрейта : Постоянный
Битрейт : 192 Кбит/сек
Каналы : 2 канала
Расположение каналов : Front: L R
Частота : 48,0 КГц
Частота кадров : 31,250 кадров/сек (1536 SPF)
Битовая глубина : 16 бит
Метод сжатия : С потерями
Размер потока : 158 Мбайт (1%)
Заголовок : DVO
Язык : Russian
ServiceKind/String : Complete Main
Default : Нет
Forced : Нет

Аудио #3
Идентификатор : 4
Формат : DTS
Формат/Информация : Digital Theater Systems
Идентификатор кодека : A_DTS
Продолжительность : 1 ч. 54 м.
Вид битрейта : Постоянный
Битрейт : 1509 Кбит/сек
Каналы : 2 канала
Расположение каналов : Front: L R
Частота : 48,0 КГц
Частота кадров : 93,750 кадра/сек (512 SPF)
Битовая глубина : 24 бит
Метод сжатия : С потерями
Размер потока : 1,21 Гбайт (9%)
Заголовок : original
Язык : English
Default : Нет
Forced : Нет

Текст
Идентификатор : 5
Формат : UTF-8
Идентификатор кодека : S_TEXT/UTF8
Идентификатор кодека/Информация : UTF-8 Plain Text
Продолжительность : 1 ч. 54 м.
Битрейт : 53 бит/сек
ElementCount : 1768
Размер потока : 44,7 Кбайт (0%)
Заголовок : английские
Язык : English
Default : Нет
Forced : Нет

Меню
00:00:00.000 : en:00:00:00.000
00:05:24.658 : en:00:05:24.658
00:13:47.994 : en:00:13:47.994
00:17:35.429 : en:00:17:35.429
00:25:56.430 : en:00:25:56.430
00:31:45.987 : en:00:31:45.987
00:39:25.029 : en:00:39:25.029
00:46:44.802 : en:00:46:44.802
00:53:37.089 : en:00:53:37.089
01:01:58.256 : en:01:01:58.256
01:09:59.862 : en:01:09:59.862
01:14:59.203 : en:01:14:59.203
01:19:56.750 : en:01:19:56.750
01:28:16.291 : en:01:28:16.291
01:36:52.724 : en:01:36:52.724
01:43:09.767 : en:01:43:09.767



Скачать В ночи через торрент http://c.radikal.ru/c39/1712/b4/ac6b4969f3e9.jpg Скачать, смотреть онлайн В ночи бесплантно в хорошем качестве Описание: Жизнь Эда Оркина скучна и уныла: его мучает бессонница, нудная работа не доставляет никакого удовольствия, жена постоянно ... 10 10 1
Info! Золотая раздача, скачанное не засчитывается.
Торрент: Зарегистрирован [2017-12-24 07:10] · скачан: 7 раз
Статус: √ проверено
Размер: 14.03 GB
Как cкачать? Как скачать В ночи через торрент | UTorrent

% Раздел Тема Автор DL S | L
Фильмы [HD 720p, 1080p] (Хороший звук DUB, MVO) [ 4.96 GB ] В ночи / Into the Night | MVO | 720p msltel Скачать
1 | 0

28-11-2019 20:33  


Отключить вcю реклaмy на сайте, в т.ч. и в плеере онлайн просмотра!

24-12-2017 09:33 В ночи Скачать торрент  

Так триллер,драма или таки комедия?Ахринеть какие родственные жанры!



    Дорогой пользователь! Огромная просьба, поблагодарите релизера, оцените раздачу и оставьте свои комментарий, если Вы скачали В ночи через торрент бесплатно!!
    Комментировать посты могут только пользователи прошедшие не сложную регистрацию
    Показать сообщения:    


    В ночи через торрент
    Скачать бесплатно В ночи
    В ночи скачать торрент
    В ночи смотреть онлайн
    Cкачать фильм В ночи бесплатно
    В ночи скачать торрент в хорошем качестве
    В ночи смотреть онлайн бесплатно в хорошем качестве
    Вы не можете начинать темы
    Вы не можете отвечать на сообщения
    Вы не можете редактировать свои сообщения
    Вы не можете удалять свои сообщения
    Вы не можете голосовать в опросах
    Вы не можете прикреплять файлы к сообщениям
    Вы можете скачивать файлы
    В ночи / Into the Night [1985, триллер, драма, комедия, BDRip 1080p ] MVO, DVO смотреть онлайн, скачать торрент picoco.icu