2 сезон

iTunes

MVO

1

2 сезон

iTunes

iTunes

1 сезон

RePack

30

Новинка

ВАЖНО

ИГРА 18+

pack

RePack

MK11
pack

Легкие деньги

RePack

jed

RePack

fifa19

RePack

RDR2

RePack

NEED FOR SPEED™ PAYBACK

4 сезон

9 сезон

Бесстыжие 9 сезон

Все сериалы

все сериалы на PB.wtf

RePack

FAR CRY 5

Anonymous, доброй ночи, мы не успеваем собрать деньги на оплату серверов за декабрь и январь, помогите нам пожалуйста в это трудное время. В качестве благодарности мы отключим Вам всю рекламу на сайте (укажите свой ник в строку Ваше имя)!

×
  
Magnet ссылка

Рождественский переполох / Christmas Bounty (Джил Джангер) [2013 г, боевик, комедия, HDRip] MVO pb.wtf

Рождественский переполох через торрент pb.wtf

Размер: 743 MB | Добавлен: 3 года назад | Торрент скачан:128 раз
Скачать  

24-12-2017 09:47 Рождественский переполох Скачать торрент  

Рождественский переполох / Christmas Bounty
Год выпуска: 2013
Страна: США
Жанр: боевик, комедия
Продолжительность: 01:13:02
Перевод: Профессиональный многоголосый (SDI Media)

Режиссер: Джил Джангер

rating

В ролях: Франсиа Рэйса, Майк Мизанин, Уилл Гринберг, Майкл Ханус, Эйприл Телек, Скотт Пате, Алекс Паунович, Челан Симмонс, Кит Даллас, Малкольм Стюарт

Описание: Учительница, работавшая прежде охотницей за головами, пытается скрыть от бойфренда прошлое. Пока прошлое не возвращается в ее жизнь в виде заклятого врага…

Качество: HDRip
Формат: AVI
Видео: XviD, 1286 Кбит/с, 688x384, 23.976 кадр/с
Аудио: MP3, 2 ch, 128 Кбит/с
Релиз от: Koenig
скриншот   скриншот   скриншот   скриншот   скриншот   скриншот  

Общее
Полное имя : Christmas.Bounty.2013.HDRip.avi
Формат : AVI
Формат/Информация : Audio Video Interleave
Размер файла : 743 Мбайт
Продолжительность : 1 ч. 13 м.
Общий поток : 1423 Кбит/сек
Программа кодирования : VirtualDubMod 1.5.10.2 (build 2540/release)
Библиотека кодирования : VirtualDubMod build 2540/release

Видео
Идентификатор : 0
Формат : MPEG-4 Visual
Профиль формата : Advanced Simple@L5
Параметр BVOP формата : 1
Параметр QPel формата : Нет
Параметр GMC формата : Без точки перехода
Параметр матрицы формата : Выборочная
Идентификатор кодека : XVID
Идентификатор кодека/Подсказка : XviD
Продолжительность : 1 ч. 13 м.
Битрейт : 1286 Кбит/сек
Ширина : 688 пикселей
Высота : 384 пикселя
Соотношение сторон : 16:9
Частота кадров : 23,976 (24000/1001) кадра/сек
Цветовое пространство : YUV
Субдискретизация насыщенности : 4:2:0
Битовая глубина : 8 бит
Тип развёртки : Прогрессивная
Метод сжатия : С потерями
Бит/(Пиксели*Кадры) : 0.203
Размер потока : 672 Мбайт (90%)
Библиотека кодирования : XviD 65

Аудио
Идентификатор : 1
Формат : MPEG Audio
Версия формата : Version 1
Профиль формата : Layer 3
Режим : Joint stereo
Расширение режима : MS Stereo
Идентификатор кодека : 55
Идентификатор кодека/Подсказка : MP3
Продолжительность : 1 ч. 13 м.
Вид битрейта : Постоянный
Битрейт : 128 Кбит/сек
Каналы : 2 канала
Частота : 48,0 КГц
Метод сжатия : С потерями
Размер потока : 66,9 Мбайт (9%)
Выравнивание : Соединение по промежуткам
Продолжительность промежутка : 42 мс. (1,00 видеокадр)
Время предзагрузки промежутка : 504 мс.
Библиотека кодирования : LAME3.98r
Настройки программы : -m j -V 4 -q 3 -lowpass 17 -b 128

pb.wtf



Скачать Рождественский переполох через торрент http://pic1.kartinco.top/images/11/kzrz8.jpg Скачать фильм Рождественский переполох через торрент бесплантно в хорошем качестве Описание: Учительница, работавшая прежде охотницей за головами, пытается скрыть от бойфренда прошлое. Пока прошлое не возвращается в ее ... 9.8 10 4
Торрент: Зарегистрирован [2017-12-24 09:47] · скачан: 128 раз
Статус: √ проверено
Размер: 743 MB
Как cкачать? Как скачать Рождественский переполох через торрент | UTorrent

28-11-2019 20:33  

Отключить всю рекламу на сайте

    Дорогой пользователь! Огромная просьба, поблагодарите релизера, оцените раздачу и оставьте свои комментарий, если Вы скачали Рождественский переполох через торрент бесплатно! Внесите свою лепту в развитие PiratBit!
    Комментировать посты могут только пользователи прошедшие не сложную регистрацию
    Показать сообщения:    

    Рождественский переполох через торрент
    Скачать бесплатно Рождественский переполох
    Рождественский переполох скачать торрент
    Рождественский переполох смотреть онлайн
    Cкачать фильм Рождественский переполох бесплатно
    Рождественский переполох скачать торрент в хорошем качестве
    Рождественский переполох смотреть онлайн бесплатно в хорошем качестве


    Вы не можете начинать темы
    Вы не можете отвечать на сообщения
    Вы не можете редактировать свои сообщения
    Вы не можете удалять свои сообщения
    Вы не можете голосовать в опросах
    Вы не можете прикреплять файлы к сообщениям
    Вы можете скачивать файлы