новый адрес пиратбит piratbit
Мега распродажа FORZA HORIZON 4 ULTIMATE+ВСЕ DLC+ОНЛАЙН всего за 499р. 349 руб. (супер цена). Внимание количество ограничено!!!

iTunes

1+1

iTunes

мы

iTunes

1

iTunes

Чернобыль

iTunes

Ральф против интернета

Лицензия

ПШазам

Лицензия

Игра престолов

Лицензия

30
pack

ВАЖНО

!!Акция!!

Alien_RageХит недели

RePack

Resident Evil 21

ИГРА 18+

pack

RePack

Metro:Exodus

!!Акция!!

Alien_Rage

RePack

fifa19

RePack

Assassins Creed: Odyssey

RePack

NEED FOR SPEED™ PAYBACK

3 сезон

9 сезон

Бесстыжие 9 сезон

Все сериалы

все сериалы на PB.wtf

RePack

FAR CRY 5
Ребята, катастрофически не хватает 1900р. для оплаты серверов за Октябрь (всвязи с блокировками трафик упал в 3 раза), 1-2р., выручайте.
  

Озорные повороты (Кальё Кийск, Юлий Кун) [1959, СССР, комедия, спорт, DVDRip от AVP Studio] Rus + Est pb.wtf

Озорные повороты через торрент pb.wtf

Размер: 751 MB | Добавлен: 1 год 10 мес. назад | Торрент скачан:19 раз
Скачать  

24-12-2017 10:28 Озорные повороты Скачать торрент  

Озорные повороты
Страна: СССР
Производство: Таллинфильм

Жанр: комедия, спорт
Год выпуска: 1959
Продолжительность: 01:30:22

Перевод: Не требуется
Cубтитры: нет
Оригинальная аудиодорожка: русский

Режиссер: Кальё Кийск, Юлий Кун

В ролях:
Терье Луйк, Рейн Арен, Пеэтер Кард, Эве Киви, Харийс Лиепиньш, Яанус Оргулас, Рудольф Нууде, Антс Эскола, Вольдемар Пансо, Инга Пииритс, Хейки Роотс, Эрик Круук...
Об актёрах подробней

Описание:
Старый Тоомас, что стоит на шпиле таллинской ратуши, знает жителей своего города и, чтобы помочь кому-нибудь, решился рассказать одну поучительную историю о спорте и любви. Эта история началась с того самого дня, когда девушка Вайке (Терье Луйк) спасла от неминуемой гибели собачонку Антонио, выхватив буквально из-под колес мотоцикла гонщика Райво (Рейн Арен), считавшего всех девчонок легкомысленными и не достойными его внимания.

Исходник: DVB
Качество видео: SATRip
Формат видео: AVI

Видео: 720х304 (2,35:1), 25 fps, XviD ~ 760 kbps avg, 0.139 bit/pixel
Аудио: 48 kHz, Dolby Digital AC3 2.0, 192 kbps русский
Аудио: 48 kHz, Dolby Digital AC3 2.0, 192 kbps эстонский

Раздача от:
Общее
Полное имя : Ozornye.povoroty.1959.DVDRip_[New-team]_by_AVP_Studio.avi
Формат : AVI
Формат/Информация : Audio Video Interleave
Размер файла : 751 Мбайт
Продолжительность : 1 ч. 30 м.
Общий поток : 1161 Кбит/сек

Видео
Идентификатор : 0
Формат : MPEG-4 Visual
Профиль формата : Advanced Simple@L5
Настройки формата : BVOP1 / Custom Matrix
Параметр BVOP формата : 1
Параметр QPel формата : Нет
Параметр GMC формата : Без точки перехода
Параметр матрицы формата : Выборочная
Идентификатор кодека : XVID
Идентификатор кодека/Подсказка : XviD
Продолжительность : 1 ч. 30 м.
Битрейт : 760 Кбит/сек
Ширина : 720 пикселей
Высота : 304 пикселя
Соотношение сторон : 2,35:1
Частота кадров : 25,000 кадров/сек
Цветовое пространство : YUV
Субдискретизация насыщенности : 4:2:0
Битовая глубина : 8 бит
Тип развёртки : Прогрессивная
Метод сжатия : С потерями
Бит/(Пиксели*Кадры) : 0.139
Размер потока : 491 Мбайт (65%)
Библиотека кодирования : XviD 73

Аудио #1
Идентификатор : 1
Формат : AC-3
Формат/Информация : Audio Coding 3
Идентификатор кодека : 2000
Продолжительность : 1 ч. 30 м.
Вид битрейта : Постоянный
Битрейт : 192 Кбит/сек
Каналы : 2 канала
Расположение каналов : Front: L R
Частота : 48,0 КГц
Частота кадров : 31,250 кадров/сек (1536 SPF)
Битовая глубина : 16 бит
Метод сжатия : С потерями
Размер потока : 124 Мбайт (17%)
Выравнивание : Соединение по промежуткам
Продолжительность промежутка : 32 мс. (0,80 видеокадр)

Аудио #2
Идентификатор : 2
Формат : AC-3
Формат/Информация : Audio Coding 3
Идентификатор кодека : 2000
Продолжительность : 1 ч. 30 м.
Вид битрейта : Постоянный
Битрейт : 192 Кбит/сек
Каналы : 2 канала
Расположение каналов : Front: L R
Частота : 48,0 КГц
Частота кадров : 31,250 кадров/сек (1536 SPF)
Битовая глубина : 16 бит
Метод сжатия : С потерями
Размер потока : 124 Мбайт (17%)
Выравнивание : Соединение по промежуткам
Продолжительность промежутка : 32 мс. (0,80 видеокадр)
pb.wtf



Скачать Озорные повороты через торрент http://i103.fastpic.ru/big/2017/1224/b1/2646be9269d43e609cbdd98247efd4b1.png Скачать фильм Озорные повороты через торрент бесплантно в хорошем качестве Описание:Старый Тоомас, что стоит на шпиле таллинской ратуши, знает жителей своего города и, чтобы помочь кому-нибудь, решился рассказать ... 5 10 1
Info! Золотая раздача, скачанное не засчитывается.
Торрент: Зарегистрирован [2017-12-24 10:28] · скачан: 19 раз
Статус: √ проверено
Размер: 751 MB
Как cкачать? Как скачать Озорные повороты через торрент | qTorrent

% Раздел Тема Автор DL S | L
Кино СССР [ 1.09 GB ] Озорные повороты [1959 СССР DVDRip-AVC от AVP Studio] Rus + Est AVP Studio Скачать
1 | 0


>> Регистрируемся здесь <<






Отзывы и комментарии о схеме читаем и пишем здесь: ---> Отзывы и комментарии о схеме

Новые благодарочки в телеграм довольных пользователей:
скриншот   скриншот   скриншот   скриншот   скриншот
    Дорогой пользователь! Огромная просьба, поблагодарите релизера, оцените раздачу и оставьте свои комментарий, если Вы скачали Озорные повороты через торрент бесплатно! Внесите свою лепту в развитие PiratBit!
    Комментировать посты могут только пользователи прошедшие не сложную регистрацию
    Показать сообщения:    

    Озорные повороты через торрент
    Скачать бесплатно Озорные повороты
    Озорные повороты скачать торрент
    Озорные повороты смотреть онлайн
    Cкачать фильм Озорные повороты бесплатно
    Озорные повороты скачать торрент в хорошем качестве
    Озорные повороты смотреть онлайн бесплатно в хорошем качестве


    Вы не можете начинать темы
    Вы не можете отвечать на сообщения
    Вы не можете редактировать свои сообщения
    Вы не можете удалять свои сообщения
    Вы не можете голосовать в опросах
    Вы не можете прикреплять файлы к сообщениям
    Вы можете скачивать файлы