Ссылка на приватное зеркало нашего сайта всего за 1$. Внимание количество ограничено!!!

2 сезон

iTunes

1 сезон

1

2 сезон

2 сезон

iTunes

1 сезон

RePack

30

Ultimate

ВАЖНО

ИГРА 18+

pack

RePack

MK11
pack

Забери бонус

RePack

jed

!!Акция!!

Alien_Rage

RePack

fifa19

RePack

Assassins Creed: Odyssey

RePack

NEED FOR SPEED™ PAYBACK

4 сезон

9 сезон

Бесстыжие 9 сезон

Все сериалы

все сериалы на PB.wtf

RePack

FAR CRY 5
  

Корона / The Crown / Сезон: 2 / Серии 1-10 из 10 (Бенжамин Карон, Стивен Долдри, Филип Мартин) [2017, Историческая драма, WEBRip 1080p] [MVO] (Jaskier) pb.wtf

Корона через торрент pb.wtf

Размер: 19.23 GB | Добавлен: 2 года 11 мес. назад | Торрент скачан:24 раза
Скачать  

24-12-2017 18:39 Корона Скачать торрент  

Корона | The Crown Год выпуска: 2017
Страна: Великобритания / Sony Pictures Television Production UK
Жанр: Историческая драма
Продолжительность: ~ 00:59:00
Перевод: Профессиональный (многоголосый закадровый) | Jaskier

Режиссёр: Бенжамин Карон, Стивен Долдри, Филип Мартин

В ролях: Дэниэл Беттс, Джеймс Хиллер, Джереми Нортэм, Джаред Харрис, Ник Оуэнфорд, Мартин Бишоп, Рита МакДональд Дампер, Карл Фаррер и др.

Описание: Нередко сериалы посвящают историческим личностям, которые внесли огромный вклад в развитие различных научных сфер деятельности или культуры. Но если сериал посвящают человеку при жизни, то значит он того явно заслужил. В центре внимания истории "Корона" находится британская королева Елизавета Вторая, которая славится своей харизматичной личностью и умением держать страну "на коротком поводке". Перед нами сериал, который рассказывает о состоянии дел британского правительства на момент окончания Второй Мировой Войны. Жизнь сложно назвать простой и беззаботной, поэтому английские высшие чины пытаются поднять с колен ранее величайшую империю.



Качество: WEBRip 1080p
Формат: MKV
Видео: 1920x1080 (16:9) | X264 | ~3500 kbps | 25 fps
Аудио 1: AC3 | 48 KHz | 5.1 (Front: L С R Side: L R) + LFE | ~384 kbps [RUS]
Аудио 2: AC3 | 48 KHz | 5.1 (Front: L С R Side: L R) + LFE | ~384 kbps [ENG]
Субтитры: английские
Общее
Уникальный идентификатор                 : 239222026043166716768607359619668349551 (0xB3F87C803622FBE9BDE8EF73DEBF926F)
Полное имя                               : D:\Яскъер\The Crown. Season 2 (WEBRip l 1080p l Jaskier)\The.Crown.S02E01.WEBRip.1080p.NF.DD5.1.x264-Jaskier.mkv
Формат                                   : Matroska
Версия формата                           : Version 2
Размер файла                             : 1,37 Гбайт
Продолжительность                        : 56 м. 36 с.
Режим общего битрейта                    : Переменный
Общий поток                              : 3452 Кбит/сек
Дата кодирования                         : UTC 2017-12-24 14:16:48
Программа кодирования                    : mkvmerge v7.8.0 ('River Man') 32bit built on Apr  3 2015 12:11:22
Библиотека кодирования                   : libebml v1.3.1 + libmatroska v1.4.2

Видео
Идентификатор                            : 1
Формат                                   : AVC
Формат/Информация                        : Advanced Video Codec
Профиль формата                          : Main@L4
Настройки формата                        : CABAC / 3 Ref Frames
Параметр CABAC формата                   : Да
Параметр RefFrames формата               : 3 кадра
Идентификатор кодека                     : V_MPEG4/ISO/AVC
Продолжительность                        : 56 м. 36 с.
Вид битрейта                             : Переменный
Битрейт                                  : 2740 Кбит/сек
Максимальный битрейт                     : 4110 Кбит/сек
Ширина                                   : 1920 пикселей
Высота                                   : 1080 пикселей
Соотношение сторон                       : 16:9
Режим частоты кадров                     : Постоянный
Частота кадров                           : 25,000 кадров/сек
Цветовое пространство                    : YUV
Субдискретизация насыщенности            : 4:2:0
Битовая глубина                          : 8 бит
Тип развёртки                            : Прогрессивная
Бит/(Пиксели*Кадры)                      : 0.053
Размер потока                            : 1,03 Гбайт (76%)
Библиотека кодирования                   : x264 core 148
Настройки программы                      : cabac=1 / ref=3 / deblock=1:0:0 / analyse=0x1:0x111 / me=umh / subme=10 / psy=1 / psy_rd=1.00:0.00 / mixed_ref=1 / me_range=24 / chroma_me=1 / trellis=2 / 8x8dct=0 / cqm=0 / deadzone=21,11 / fast_pskip=1 / chroma_qp_offset=-2 / threads=6 / lookahead_threads=1 / sliced_threads=0 / nr=0 / decimate=1 / interlaced=0 / bluray_compat=0 / stitchable=1 / constrained_intra=0 / bframes=2 / b_pyramid=0 / b_adapt=2 / b_bias=0 / direct=3 / weightb=1 / open_gop=0 / weightp=2 / keyint=50 / keyint_min=26 / scenecut=0 / intra_refresh=0 / rc_lookahead=50 / rc=2pass / mbtree=1 / bitrate=2740 / ratetol=1.0 / qcomp=0.50 / qpmin=6 / qpmax=51 / qpstep=4 / cplxblur=20.0 / qblur=0.5 / vbv_maxrate=4110 / vbv_bufsize=5480 / nal_hrd=vbr / filler=0 / ip_ratio=1.40 / aq=1:1.00
Язык                                     : English
Default                                  : Да
Forced                                   : Нет

Аудио #1
Идентификатор                            : 2
Формат                                   : AC-3
Формат/Информация                        : Audio Coding 3
Идентификатор кодека                     : A_AC3
Продолжительность                        : 56 м. 36 с.
Вид битрейта                             : Постоянный
Битрейт                                  : 384 Кбит/сек
Каналы                                   : 6 каналов
Расположение каналов                     : Front: L C R, Side: L R, LFE
Частота                                  : 48,0 КГц
Частота кадров                           : 31,250 кадров/сек (1536 SPF)
Битовая глубина                          : 16 бит
Метод сжатия                             : С потерями
Размер потока                            : 155 Мбайт (11%)
Заголовок                                : Jaskier
Язык                                     : Russian
ServiceKind/String                       : Complete Main
Default                                  : Да
Forced                                   : Нет

Аудио #2
Идентификатор                            : 3
Формат                                   : AC-3
Формат/Информация                        : Audio Coding 3
Идентификатор кодека                     : A_AC3
Продолжительность                        : 56 м. 36 с.
Вид битрейта                             : Постоянный
Битрейт                                  : 384 Кбит/сек
Каналы                                   : 6 каналов
Расположение каналов                     : Front: L C R, Side: L R, LFE
Частота                                  : 48,0 КГц
Частота кадров                           : 31,250 кадров/сек (1536 SPF)
Битовая глубина                          : 16 бит
Метод сжатия                             : С потерями
Размер потока                            : 155 Мбайт (11%)
Язык                                     : English
ServiceKind/String                       : Complete Main
Default                                  : Нет
Forced                                   : Нет

Текст
Идентификатор                            : 4
Формат                                   : UTF-8
Идентификатор кодека                     : S_TEXT/UTF8
Идентификатор кодека/Информация          : UTF-8 Plain Text
Язык                                     : English
Default                                  : Нет
Forced                                   : Нет
скриншот  скриншот  скриншот  
pb.wtf



Скачать Корона через торрент http://i100.fastpic.ru/big/2017/1224/ff/3e013c15856fa1b7f86870ad5f1086ff.jpg Скачать фильм Корона через торрент бесплантно в хорошем качестве Описание: Нередко сериалы посвящают историческим личностям, которые внесли огромный вклад в развитие различных научных сфер деятельности ... 10 10 1
Торрент: Зарегистрирован [2017-12-24 18:39] · скачан: 24 раз
Статус: √ проверено
Размер: 19.23 GB
Как cкачать? Как скачать Корона через торрент | qTorrent

% Раздел Тема Автор DL S | L
Зарубежные сериалы [ 49.66 GB ] Корона / The Crown / Сезон: 2 / Серии: 1-10 из 10 [2017 история BDRip 1080p] DUB [SDI Media] bober100 Скачать
1 | 0
Зарубежные сериалы [ 5.25 GB ] Корона / The Crown / Сезон: 2 / Серии: 1-3 из 10 [2017 история WEBRip 1080p] MVO [TVShows] bober100 Скачать
1 | 0
Фильмы с украинским озвучиванием [ 19.24 GB ] Корона / The Crown / Сезон: 2 / Серии 1-10 из 10 [2017 история биография WEBRip 1080p] [Ukr MVO] killermax2013 Скачать
1 | 0
Зарубежные сериалы [ 36.88 GB ] Корона / The Crown / Сезон: 2 / Серии 1-10 из 10 [2017 Историческая WEBRip 1080p] [MVO] killermax2013 Скачать
1 | 0
Зарубежные сериалы [ 6.6 GB ] Корона / The Crown / Сезон: 2 / Серии 1-10 из 10 [2017 Историческая WEBRip] [MVO] killermax2013 Скачать
1 | 0
Зарубежные сериалы [ 6.6 GB ] Корона / The Crown / Сезон: 2 / Серии 1-10 из 10 [2017 Историческая WEBRip] [MVO] killermax2013 Скачать
1 | 0
Зарубежные сериалы [ 6.84 GB ] Корона / The Crown / Сезон: 2 / Серии 1-10 из 10 [2017 Историческая WEB-DLRip] [MVO] killermax2013 Скачать
1 | 0

28-11-2019 20:33  

Отключить всю рекламу на сайте

    Дорогой пользователь! Огромная просьба, поблагодарите релизера, оцените раздачу и оставьте свои комментарий, если Вы скачали Корона через торрент бесплатно! Внесите свою лепту в развитие PiratBit!
    Комментировать посты могут только пользователи прошедшие не сложную регистрацию
    Показать сообщения:    

    Корона через торрент
    Скачать бесплатно Корона
    Корона скачать торрент
    Корона смотреть онлайн
    Cкачать фильм Корона бесплатно
    Корона скачать торрент в хорошем качестве
    Корона смотреть онлайн бесплатно в хорошем качестве


    Вы не можете начинать темы
    Вы не можете отвечать на сообщения
    Вы не можете редактировать свои сообщения
    Вы не можете удалять свои сообщения
    Вы не можете голосовать в опросах
    Вы не можете прикреплять файлы к сообщениям
    Вы можете скачивать файлы