2 сезон

iTunes

MVO

1

2 сезон

iTunes

iTunes

1 сезон

RePack

30

Новинка

ВАЖНО

ИГРА 18+

pack

RePack

MK11
pack

Легкие деньги

RePack

jed

RePack

fifa19

RePack

RDR2

RePack

NEED FOR SPEED™ PAYBACK

4 сезон

9 сезон

Бесстыжие 9 сезон

Все сериалы

все сериалы на PB.wtf

RePack

FAR CRY 5

Anonymous, добрый день, мы не успеваем собрать деньги на оплату серверов за декабрь и январь, помогите нам пожалуйста в это трудное время. В качестве благодарности мы отключим Вам всю рекламу на сайте (укажите свой ник в строку Ваше имя)!

×
  
Magnet ссылка

Максимальный удар / Maximum Impact (Анджей Бартковяк) [2017 г., Боевик, комедия, WEB-DLRip,Дублированный | iTunes] pb.wtf

Максимальный удар через торрент pb.wtf

Размер: 1.46 GB | Добавлен: 3 года назад | Торрент скачан:701 раз
Скачать  

24-12-2017 23:32 Максимальный удар Скачать торрент  

Максимальный удар / Maximum Impact
Год выпуска: 2017
Страна: Россия, США
Жанр: Боевик, комедия
Продолжительность: 01:45:11
Субтитры: нет

Режиссер: Анджей Бартковяк

rating

В ролях: Александр Невский, Дэнни Трэхо, Том Арнольд, Келли Ху, Марк Дакаскос, Уильям Болдуин, Альфонсо МакОли, Маттиас Хьюз, Кит Пауэрс, Евгений Стычкин, Бай Линь, Максим Виторган, Аристарх Венес, Эрик Робертс, Лилия Мэй

Описание: Госсекретарь США тайно прибывает на секретный саммит в Москве, чтобы уладить напряженность российско-американских отношений. Однако мир оказывается перед угрозой Третьей мировой войны, когда лидер международной преступной группировки организовывает покушение на госсекретаря и похищает его внучку. ФСБ и ЦРУ объединяются, чтобы спасти человечество.

Перевод:Дублированный | iTunes

Качество: WEB-DLRip
Формат: AVI
Видео кодек: XviD
Аудио кодек: AC3
Видео: XviD, 720x304, 25 fps, 1593 kbps
Аудио#1: AC3, 6 ch, 384 kbps
скриншот   скриншот   скриншот   скриншот  

General
Complete name : H:\релизы.торрентфайл\Maximum.Impact.2017.WEB-DLRip.1.46Gb.MegaPeer.avi
Format : AVI
Format/Info : Audio Video Interleave
File size : 1.46 GiB
Duration : 1h 45mn
Overall bit rate : 1 988 Kbps
Writing application : VirtualDubMod 1.5.10.2 (build 2540/release)
Writing library : VirtualDubMod build 2540/release

Video
ID : 0
Format : MPEG-4 Visual
Format profile : Advanced Simple@L5
Format settings, BVOP : 1
Format settings, QPel : No
Format settings, GMC : No warppoints
Format settings, Matrix : Custom
Codec ID : XVID
Codec ID/Hint : XviD
Duration : 1h 45mn
Bit rate : 1 594 Kbps
Width : 720 pixels
Height : 304 pixels
Display aspect ratio : 2.35:1
Frame rate : 25.000 fps
Color space : YUV
Chroma subsampling : 4:2:0
Bit depth : 8 bits
Scan type : Progressive
Compression mode : Lossy
Bits/(Pixel*Frame) : 0.291
Stream size : 1.17 GiB (80%)
Writing library : XviD 73

Audio
ID : 1
Format : AC-3
Format/Info : Audio Coding 3
Mode extension : CM (complete main)
Format settings, Endianness : Big
Codec ID : 2000
Duration : 1h 45mn
Bit rate mode : Constant
Bit rate : 384 Kbps
Channel(s) : 6 channels
Channel positions : Front: L C R, Side: L R, LFE
Sampling rate : 48.0 KHz
Bit depth : 16 bits
Compression mode : Lossy
Stream size : 289 MiB (19%)
Alignment : Split accross interleaves
Interleave, duration : 40 ms (1.00 video frame)
Interleave, preload duration : 500 ms

pb.wtf



Скачать Максимальный удар через торрент http://i103.fastpic.ru/big/2017/1224/2a/868394a490cd77add915abe8cfb8bc2a.jpg Скачать фильм Максимальный удар через торрент бесплантно в хорошем качестве Описание: Госсекретарь США тайно прибывает на секретный саммит в Москве, чтобы уладить напряженность российско-американских отношений. ... 8.6 10 26
Торрент: Зарегистрирован [2017-12-24 23:32] · скачан: 701 раз
Статус: √ проверено
Размер: 1.46 GB
Как cкачать? Как скачать Максимальный удар через торрент | UTorrent

% Раздел Тема Автор DL S | L
Фильмы (WEB-DL 720p, 1080p) [ 3.62 GB ] Максимальный удар / Maximum Impact [2017 WEB-DL 1080p] bober100 Скачать
1 | 0
Фильмы 2017 [DVDrip, WEB-DLRip, HDrip] (DUB, MVO) [ 1.46 GB ] Максимальный удар / Maximum Impact [2017 BDRip] - [] Twi7ter Скачать
1 | 0
Фильмы 2017 [DVDrip, WEB-DLRip, HDrip] (DUB, MVO) [ 2.47 GB ] Максимальный удар / Maximum Impact [2017 BDRip-AVC ] - ExKinoRay Enigma2010 Скачать
1 | 0


Последний раз редактировалось: oleg8 (2017-12-25 00:10), всего редактировалось 1 раз

28-11-2019 20:33  

Отключить всю рекламу на сайте

24-12-2017 23:40 Максимальный удар Скачать торрент  

Я х. знаю в какой раздел-наши не наши?pb.wtf



25-12-2017 03:36 Максимальный удар Скачать торрент  

нет спасибоpb.wtf



25-12-2017 07:12 Максимальный удар Скачать торрент  

oleg8 писал(а):

Я х. знаю в какой раздел-наши не наши?

Для таких фильмов как этот нужно создать свой отдельный раздел - "Выбор BadComedian'а"pb.wtf



25-12-2017 08:02 Максимальный удар Скачать торрент  

Топик был перенесен из форума Наши новые фильмы 2017 в форум Фильмы 2017 [DVDrip, WEB-DLRip, HDrip] (DUB, MVO)


bober100pb.wtf



25-12-2017 11:00 Максимальный удар Скачать торрент  

просмотр данного шедевра на массу или на рельеф идёт?pb.wtf



25-12-2017 16:02 Максимальный удар Скачать торрент  

смотрю вооще всех собрал невский.pb.wtf



25-12-2017 20:03 Максимальный удар Скачать торрент  

Александр Невский, Дэнни Трэхо, пхахахах,проходим мимо pb.wtf



27-12-2017 17:11 Максимальный удар Скачать торрент  

уот так уот)))pb.wtf



06-01-2018 20:32 Максимальный удар Скачать торрент  

зато отзывов как нигде )))рейтинг супер!!!pb.wtf



    Дорогой пользователь! Огромная просьба, поблагодарите релизера, оцените раздачу и оставьте свои комментарий, если Вы скачали Максимальный удар через торрент бесплатно! Внесите свою лепту в развитие PiratBit!
    Комментировать посты могут только пользователи прошедшие не сложную регистрацию
    Показать сообщения:    

    Максимальный удар через торрент
    Скачать бесплатно Максимальный удар
    Максимальный удар скачать торрент
    Максимальный удар смотреть онлайн
    Cкачать фильм Максимальный удар бесплатно
    Максимальный удар скачать торрент в хорошем качестве
    Максимальный удар смотреть онлайн бесплатно в хорошем качестве


    Вы не можете начинать темы
    Вы не можете отвечать на сообщения
    Вы не можете редактировать свои сообщения
    Вы не можете удалять свои сообщения
    Вы не можете голосовать в опросах
    Вы не можете прикреплять файлы к сообщениям
    Вы можете скачивать файлы