1 сезон

3 сезон

iTunes

1

iTunes

DUB Netflix

iTunes

13

1 сезон

RePack

30

Deluxe

pack

Легкие деньги

ВАЖНО

ИГРА 18+

pack

RePack

MK11

RePack

jed

RePack

fifa19

RePack

RDR2

RePack

NEED FOR SPEED™ PAYBACK

4 сезон

9 сезон

Бесстыжие 9 сезон

Все сериалы

все сериалы на PB.wtf

RePack

FAR CRY 5

Anonymous, добрый вечер, мы не успеваем до 1 числа собрать деньги на оплату серверов, помогите нам пожалуйста в это трудное время. В качестве благодарности мы отключим Вам всю рекламу на сайте (укажите свой ник в строку Ваше имя)!

×
  
Magnet ссылка

Эспен в королевстве троллей / Askeladden - I Dovregubbens hall (Миккель Бренне Сандемусе) [2017, приключения, WEB-DL 1080р] DUB [Лицензия / iTunes] pb.wtf

Эспен в королевстве троллей через торрент pb.wtf

Раздают: 1 [ 0 KB/s ]
Размер: 3.62 GB | Добавлен: 3 года 5 мес. назад | Торрент скачан:3861 раз
Скачать  

25-12-2017 10:35 Эспен в королевстве троллей Скачать торрент  

Эспен в королевстве троллей / Askeladden - I Dovregubbens hall

Год выпуска: 2017
Страна: Норвегия
Жанр: приключения
Продолжительность: 01:44:33
Перевод: Дубляж - [Лицензия / iTunes]
Режиссер: Миккель Бренне Сандемусе
В ролях:

Вебьёрн Энгер (Espen Askeladd), Элли Харбоа (Prinsesse Kristin), Мэдс Сьёгард Петтерсен (Per), Элиас Хольмен Сёренсен (Pål), Эллан Хайд (Prins Fredrik), Гискен Арманд (Stubbekjerringa), Гард Б. Эйдсвольд (Kong Erik), Синневе Макоди Лунд (Dronning Victoria), Торбьорн Харр (Askeladdens far), Ида Урсин-Хольм (Huldra), Руне Хагеруп (Budbringeren), Артур Бернинг (Gunnar)
Описание:
Отважный Эспен отправляется в увлекательное и опасное приключение к пещере горного короля, чтобы спасти принцессу и все королевство.
Рейтинг:

Качество: WEB-DL 1080p
Формат: MKV
Видео: AVC, 1920x804 (2.40:1), 4470 kbps, 24 fps, 0,121 bpp
Аудио: русский / AC3 / 5.1 / 48 kHz / 384 kbps / |DUB|
Навигация по главам: есть
General
Unique ID : 174912370159540387081183039619174783189 (0x8396E5AA88D68951847802AC0F4058D5)
Complete name : E:\Askeladden.I.Dovregubbens.hall.2017.1080p.WEB-DL.Rus.mkv
Format : Matroska
Format version : Version 2
File size : 3.62 GiB
Duration : 1 h 44 min
Overall bit rate : 4 953 kb/s
Encoded date : UTC 2017-12-24 19:23:57
Writing application : mkvmerge v8.3.0 ('Over the Horizon') 64bit
Writing library : libebml v1.3.1 + libmatroska v1.4.2

Video
ID : 1
Format : AVC
Format/Info : Advanced Video Codec
Format profile : High@L4
Format settings, CABAC : Yes
Format settings, ReFrames : 5 frames
Format settings, GOP : N=1
Codec ID : V_MPEG4/ISO/AVC
Duration : 1 h 44 min
Bit rate : 4 470 kb/s
Width : 1 920 pixels
Height : 804 pixels
Display aspect ratio : 2.40:1
Frame rate mode : Constant
Frame rate : 24.000 FPS
Color space : YUV
Chroma subsampling : 4:2:0
Bit depth : 8 bits
Scan type : Progressive
Bits/(Pixel*Frame) : 0.121
Stream size : 3.26 GiB (90%)
Language : English
Default : Yes
Forced : No
Color range : Limited
Color primaries : BT.709
Transfer characteristics : BT.709
Matrix coefficients : BT.709

Audio
ID : 2
Format : AC-3
Format/Info : Audio Coding 3
Mode extension : CM (complete main)
Format settings, Endianness : Big
Codec ID : A_AC3
Duration : 1 h 44 min
Bit rate mode : Constant
Bit rate : 384 kb/s
Channel(s) : 6 channels
Channel positions : Front: L C R, Side: L R, LFE
Sampling rate : 48.0 kHz
Frame rate : 31.250 FPS (1536 spf)
Compression mode : Lossy
Stream size : 287 MiB (8%)
Language : Russian
Default : Yes
Forced : No

Menu
00:00:00.000 : en:Глава 1
00:04:11.791 : en:Глава 2
00:10:30.374 : en:Глава 3
00:18:28.749 : en:Глава 4
00:25:03.665 : en:Глава 5
00:30:03.748 : en:Глава 6
00:38:21.039 : en:Глава 7
00:54:00.830 : en:Глава 8
01:00:55.871 : en:Глава 9
01:05:31.787 : en:Глава 10
01:16:02.953 : en:Глава 11
01:23:50.494 : en:Глава 12
01:32:44.160 : en:Глава 13
01:39:33.118 : en:Глава 14
pb.wtf



Скачать Эспен в королевстве троллей через торрент http://i3.imageban.ru/out/2017/12/25/6b1a0df562c2343b80df3c12464e7b75.jpg Скачать фильм Эспен в королевстве троллей через торрент бесплантно в хорошем качестве Описание: Отважный Эспен отправляется в увлекательное и опасное к пещере горного короля, чтобы спасти принцессу и все ... 9.9 10 63
Info! Золотая раздача, скачанное не засчитывается.
Торрент: Зарегистрирован [2017-12-25 10:35] · скачан: 3 861 раз
Статус: √ проверено
Размер: 3.62 GB
Как cкачать? Как скачать Эспен в королевстве троллей через торрент | UTorrent

% Раздел Тема Автор DL S | L
Фильмы (WEB-DL 720p, 1080p) [ 3.24 GB ] Эспен в королевстве троллей / Askeladden - I Dovregubbens hall [2017 WEB-DL 720р] DUB -Lexx- Скачать
1 | 0
Фильмы 2017 [DVDrip, WEB-DLRip, HDrip] (DUB, MVO) [ 1.46 GB ] Эспен в королевстве троллей / Askeladden - I Dovregubbens hall [2017 HDRip] bober100 Скачать
1 | 0

28-11-2019 20:33  

Отключить всю рекламу на сайте


25-12-2017 11:03 Эспен в королевстве троллей Скачать торрент  

Мне понравился) Довольно интересное приключенияpb.wtf



25-12-2017 11:37 Эспен в королевстве троллей Скачать торрент  

Спасибо за фильм, думаю стоит посмотреть. pb.wtf
K-Lexx- писал(а):

Приятного просмотра.



25-12-2017 20:17 Эспен в королевстве троллей Скачать торрент  

спас,люблю приключения,заценимpb.wtf



30-12-2017 05:08 Эспен в королевстве троллей Скачать торрент  

хорошая сказка для всей семьи.нам понравилось.спасибо.pb.wtf



01-01-2018 14:22 Эспен в королевстве троллей Скачать торрент  

ParovozikDima писал(а):

Мне понравился) Довольно интересное приключения

Норвежцы приятно удивилиpb.wtf



16-06-2018 17:58 Эспен в королевстве троллей Скачать торрент  

Очень хорошая, добрая и интересная сказка. Спасибо за раздачу.pb.wtf



    Дорогой пользователь! Огромная просьба, поблагодарите релизера, оцените раздачу и оставьте свои комментарий, если Вы скачали Эспен в королевстве троллей через торрент бесплатно! Внесите свою лепту в развитие PiratBit!
    Комментировать посты могут только пользователи прошедшие не сложную регистрацию
    Показать сообщения:    

    Эспен в королевстве троллей через торрент
    Скачать бесплатно Эспен в королевстве троллей
    Эспен в королевстве троллей скачать торрент
    Эспен в королевстве троллей смотреть онлайн
    Cкачать фильм Эспен в королевстве троллей бесплатно
    Эспен в королевстве троллей скачать торрент в хорошем качестве
    Эспен в королевстве троллей смотреть онлайн бесплатно в хорошем качестве


    Вы не можете начинать темы
    Вы не можете отвечать на сообщения
    Вы не можете редактировать свои сообщения
    Вы не можете удалять свои сообщения
    Вы не можете голосовать в опросах
    Вы не можете прикреплять файлы к сообщениям
    Вы можете скачивать файлы