Ссылка на приватное зеркало всего за 1$. Внимание количество ограничено!!!

iTunes

iTunes

iTunes

1

iTunes

iTunes

iTunes

iTunes

iTunes

30
pack

$ от Little Big

ВАЖНО

!!Акция!!

Alien_RageХит недели

RePack

Resident Evil 21

ИГРА 18+

pack

RePack

jed

!!Акция!!

Alien_Rage

RePack

fifa19

RePack

Assassins Creed: Odyssey

RePack

NEED FOR SPEED™ PAYBACK

4 сезон

9 сезон

Бесстыжие 9 сезон

Все сериалы

все сериалы на PB.wtf

RePack

FAR CRY 5
  

Эспен в королевстве троллей / Askeladden - I Dovregubbens hall (Миккель Бренне Сандемусе) [2017, приключения, WEB-DL 720р] DUB [Лицензия / iTunes] pb.wtf

Эспен в королевстве троллей через торрент pb.wtf

Размер: 3.24 GB | Добавлен: 2 года 6 мес. назад | Торрент скачан:1176 раз
Скачать  

25-12-2017 10:41 Эспен в королевстве троллей Скачать торрент  

Эспен в королевстве троллей / Askeladden - I Dovregubbens hall

Год выпуска: 2017
Страна: Норвегия
Жанр: приключения
Продолжительность: 01:44:33
Перевод: Дубляж - [Лицензия / iTunes]
Режиссер: Миккель Бренне Сандемусе
В ролях:

Вебьёрн Энгер (Espen Askeladd), Элли Харбоа (Prinsesse Kristin), Мэдс Сьёгард Петтерсен (Per), Элиас Хольмен Сёренсен (Pål), Эллан Хайд (Prins Fredrik), Гискен Арманд (Stubbekjerringa), Гард Б. Эйдсвольд (Kong Erik), Синневе Макоди Лунд (Dronning Victoria), Торбьорн Харр (Askeladdens far), Ида Урсин-Хольм (Huldra), Руне Хагеруп (Budbringeren), Артур Бернинг (Gunnar)
Описание:
Отважный Эспен отправляется в увлекательное и опасное приключение к пещере горного короля, чтобы спасти принцессу и все королевство.
Рейтинг:

Качество: WEB-DL 720p
Формат: MKV
Видео: AVC, 1280x536 (2.40:1), 3970 kbps, 24 fps, 0,241 bpp
Аудио: русский / AC3 / 5.1 / 48 kHz / 384 kbps / |DUB|
Навигация по главам: есть
General
Unique ID : 243954778639442063251678864139120995799 (0xB787FB382B03F50C9E8EE8D6F17AEDD7)
Complete name : E:\EsPeNN.v.KoRolevsTve.TroLLey.2O17.D.WEB-DL.72Op.mkv
Format : Matroska
Format version : Version 2
File size : 3.24 GiB
Duration : 1 h 44 min
Overall bit rate : 4 443 kb/s
Encoded date : UTC 2017-12-24 19:24:28
Writing application : mkvmerge v8.3.0 ('Over the Horizon') 64bit
Writing library : libebml v1.3.1 + libmatroska v1.4.2

Video
ID : 1
Format : AVC
Format/Info : Advanced Video Codec
Format profile : Main@L3.1
Format settings, CABAC : No
Format settings, ReFrames : 2 frames
Format settings, GOP : N=1
Codec ID : V_MPEG4/ISO/AVC
Duration : 1 h 44 min
Bit rate : 3 970 kb/s
Width : 1 280 pixels
Height : 536 pixels
Display aspect ratio : 2.40:1
Frame rate mode : Constant
Frame rate : 24.000 FPS
Color space : YUV
Chroma subsampling : 4:2:0
Bit depth : 8 bits
Scan type : Progressive
Bits/(Pixel*Frame) : 0.241
Stream size : 2.90 GiB (89%)
Language : English
Default : Yes
Forced : No
Color range : Limited
Color primaries : BT.709
Transfer characteristics : BT.709
Matrix coefficients : BT.709

Audio
ID : 2
Format : AC-3
Format/Info : Audio Coding 3
Mode extension : CM (complete main)
Format settings, Endianness : Big
Codec ID : A_AC3
Duration : 1 h 44 min
Bit rate mode : Constant
Bit rate : 384 kb/s
Channel(s) : 6 channels
Channel positions : Front: L C R, Side: L R, LFE
Sampling rate : 48.0 kHz
Frame rate : 31.250 FPS (1536 spf)
Compression mode : Lossy
Stream size : 287 MiB (9%)
Language : Russian
Default : Yes
Forced : No

Menu
00:00:00.000 : en:Глава 1
00:04:11.791 : en:Глава 2
00:10:30.374 : en:Глава 3
00:18:28.749 : en:Глава 4
00:25:03.665 : en:Глава 5
00:30:03.748 : en:Глава 6
00:38:21.039 : en:Глава 7
00:54:00.830 : en:Глава 8
01:00:55.871 : en:Глава 9
01:05:31.787 : en:Глава 10
01:16:02.953 : en:Глава 11
01:23:50.494 : en:Глава 12
01:32:44.160 : en:Глава 13
01:39:33.118 : en:Глава 14
pb.wtf



Скачать Эспен в королевстве троллей через торрент http://i3.imageban.ru/out/2017/12/25/6b1a0df562c2343b80df3c12464e7b75.jpg Скачать фильм Эспен в королевстве троллей через торрент бесплантно в хорошем качестве Описание: Отважный Эспен отправляется в увлекательное и опасное к пещере горного короля, чтобы спасти принцессу и все ... 9.5 10 29
Info! Золотая раздача, скачанное не засчитывается.
Торрент: Зарегистрирован [2017-12-25 10:41] · скачан: 1 176 раз
Статус: √ проверено
Размер: 3.24 GB
Как cкачать? Как скачать Эспен в королевстве троллей через торрент | qTorrent

% Раздел Тема Автор DL S | L
Фильмы (WEB-DL 720p, 1080p) [ 3.62 GB ] Эспен в королевстве троллей / Askeladden - I Dovregubbens hall [2017 WEB-DL 1080р] DUB -Lexx- Скачать
2 | 0
Фильмы 2017 [DVDrip, WEB-DLRip, HDrip] (DUB, MVO) [ 1.46 GB ] Эспен в королевстве троллей / Askeladden - I Dovregubbens hall [2017 HDRip] bober100 Скачать
1 | 0

28-11-2019 20:33  

Отключить всю рекламу на сайте

29-12-2017 12:15 Эспен в королевстве троллей Скачать торрент  

Почему человеку за работу спасибо не сказать. В России так)))pb.wtf



30-12-2017 22:57 Эспен в королевстве троллей Скачать торрент  

Prince86 писал(а):

Почему человеку за работу спасибо не сказать. В России так)))

Для этого есть кнопка "Поблагодарить" что бы не засорять тему спасибками.pb.wtf



04-01-2018 06:45 Эспен в королевстве троллей Скачать торрент  

Неплохая добрая сказака, семья остаась довольна 5 из 5 автору спс.pb.wtf



07-01-2018 16:36 Эспен в королевстве троллей Скачать торрент  

=)pb.wtf



08-01-2018 12:28 Эспен в королевстве троллей Скачать торрент  

Могло бы претендовать на жанр - сказка, если бы не элементы из игр в стиле квест и сцен мочеиспускания. А так, просто нудная х@рня.pb.wtf



27-01-2018 19:22 Эспен в королевстве троллей Скачать торрент  

нормо фильм !! 5-10 .ахахах ЗОЛОТЫе яблочки вся рассия бы обдолбались ими. чтобы видеть чистых девственницpb.wtf



    Дорогой пользователь! Огромная просьба, поблагодарите релизера, оцените раздачу и оставьте свои комментарий, если Вы скачали Эспен в королевстве троллей через торрент бесплатно! Внесите свою лепту в развитие PiratBit!
    Комментировать посты могут только пользователи прошедшие не сложную регистрацию
    Показать сообщения:    

    Эспен в королевстве троллей через торрент
    Скачать бесплатно Эспен в королевстве троллей
    Эспен в королевстве троллей скачать торрент
    Эспен в королевстве троллей смотреть онлайн
    Cкачать фильм Эспен в королевстве троллей бесплатно
    Эспен в королевстве троллей скачать торрент в хорошем качестве
    Эспен в королевстве троллей смотреть онлайн бесплатно в хорошем качестве


    Вы не можете начинать темы
    Вы не можете отвечать на сообщения
    Вы не можете редактировать свои сообщения
    Вы не можете удалять свои сообщения
    Вы не можете голосовать в опросах
    Вы не можете прикреплять файлы к сообщениям
    Вы можете скачивать файлы