2 сезон

iTunes

MVO

1

2 сезон

iTunes

iTunes

1 сезон

RePack

30

Новинка

ВАЖНО

ИГРА 18+

pack

RePack

MK11
pack

Легкие деньги

RePack

jed

RePack

fifa19

RePack

RDR2

RePack

NEED FOR SPEED™ PAYBACK

4 сезон

9 сезон

Бесстыжие 9 сезон

Все сериалы

все сериалы на PB.wtf

RePack

FAR CRY 5

Anonymous, доброе утро, мы не успеваем собрать деньги на оплату серверов за декабрь и январь, помогите нам пожалуйста в это трудное время. В качестве благодарности мы отключим Вам всю рекламу на сайте (укажите свой ник в строку Ваше имя)!

×
  
Magnet ссылка

Дюнкерк / Dunkirk (Кристофер Нолан) [2017 г., Военный, драма, история, BDRip 1080p / 60 FPS, IMAX, Дубляж, Оригинал] pb.wtf

Дюнкерк через торрент pb.wtf

Размер: 15.65 GB | Добавлен: 3 года назад | Торрент скачан:335 раз
Скачать  

25-12-2017 12:38 Дюнкерк Скачать торрент  

Дюнкерк / Dunkirk
Год выпуска: 2017
Страна: Нидерланды, Великобритания, Франция, США
Жанр: Военный, драма, история
Продолжительность: 01:46:38
Перевод: Дубляж, Оригинал
Субтитры: Русские (forced, full), английские (full)
Режиссер: Кристофер Нолан

rating

В ролях: Финн Уайтхед, Том Глинн-Карни, Джек Лауден, Гарри Стайлс, Анейрин Барнард, Джеймс Д`Арси, Барри Кеоган, Кеннет Брана, Киллиан Мёрфи, Марк Райлэнс

Описание: Фильм расскажет историю чудесного спасения более трехсот тысяч солдат в ходе Дюнкеркской операции, имевшей место в начале Второй мировой войны. События начинаются с окружения сотен тысяч британских и союзных войск силами противника. Пойманные в ловушку на пляже, и находясь спиной к морю, они сталкиваются лицом к лицу с неразрешимой ситуацией, тем временем как тиски противника сжимаются все сильнее и сильнее.

Качество: BDRip 1080p / 60 FPS by Tiberiumsun69
Формат: MKV
Видео кодек: H.264
Аудио кодек: AC3
Видео: AVC, 1920x1080 (16:9), 20000 kbps, 59.94 fps , 0.159 bpp
Аудио#1: AC3, 6 ch, 48 kHz, 448 Kbps, 16 bit - DUB
Аудио#2: DTS, 6 ch, 48 kHz, 756 Kbps, 24 bit - Original

General
Unique ID : 244199966098909454671259530146415753850 (0xB7B733E4FCD483C391FCF8209579BA7A)
Complete name : D:\Торренты\Дюнкерк BDrip 1080p 60fps.mkv
Format : Matroska
Format version : Version 4 / Version 2
File size : 15.7 GiB
Duration : 1 h 46 min
Overall bit rate mode : Variable
Overall bit rate : 21.0 Mb/s
Movie name : Dunkirk (2017) by Tiberiumsun69
Encoded date : UTC 2017-12-25 01:33:11
Writing application : mkvmerge v18.0.0 ('Apricity') 64-bit
Writing library : libebml v1.3.5 + libmatroska v1.4.8

Video
ID : 1
Format : AVC
Format/Info : Advanced Video Codec
Format profile : High@L4.2
Format settings : CABAC / 4 Ref Frames
Format settings, CABAC : Yes
Format settings, ReFrames : 4 frames
Codec ID : V_MPEG4/ISO/AVC
Duration : 1 h 46 min
Bit rate mode : Variable
Bit rate : 19.8 Mb/s
Maximum bit rate : 24.0 Mb/s
Width : 1 920 pixels
Height : 1 080 pixels
Display aspect ratio : 16:9
Frame rate mode : Constant
Frame rate : 59.940 (60000/1001) FPS
Standard : NTSC
Color space : YUV
Chroma subsampling : 4:2:0
Bit depth : 8 bits
Scan type : Progressive
Bits/(Pixel*Frame) : 0.159
Stream size : 14.8 GiB (94%)
Language : English
Default : Yes
Forced : No
Color range : Limited
Color primaries : BT.709
Transfer characteristics : BT.709
Matrix coefficients : BT.709

Audio #1
ID : 2
Format : AC-3
Format/Info : Audio Coding 3
Codec ID : A_AC3
Duration : 1 h 46 min
Bit rate mode : Constant
Bit rate : 448 kb/s
Channel(s) : 6 channels
Channel positions : Front: L C R, Side: L R, LFE
Sampling rate : 48.0 kHz
Frame rate : 31.250 FPS (1536 SPF)
Bit depth : 16 bits
Compression mode : Lossy
Stream size : 342 MiB (2%)
Title : Dub [License]
Language : Russian
Service kind : Complete Main
Default : Yes
Forced : No

Audio #2
ID : 3
Format : DTS
Format/Info : Digital Theater Systems
Codec ID : A_DTS
Duration : 1 h 46 min
Bit rate mode : Constant
Bit rate : 756 kb/s
Channel(s) : 6 channels
Channel positions : Front: L C R, Side: L R, LFE
Sampling rate : 48.0 kHz
Frame rate : 93.750 FPS (512 SPF)
Bit depth : 24 bits
Compression mode : Lossy
Stream size : 577 MiB (4%)
Title : Original
Language : English
Default : No
Forced : No

Text #1
ID : 4
Format : UTF-8
Codec ID : S_TEXT/UTF8
Codec ID/Info : UTF-8 Plain Text
Duration : 1 h 45 min
Bit rate : 1 b/s
Count of elements : 30
Stream size : 1.51 KiB (0%)
Title : Forced
Language : Russian
Default : Yes
Forced : No

Text #2
ID : 5
Format : UTF-8
Codec ID : S_TEXT/UTF8
Codec ID/Info : UTF-8 Plain Text
Duration : 1 h 46 min
Bit rate : 32 b/s
Count of elements : 643
Stream size : 25.5 KiB (0%)
Title : Full
Language : Russian
Default : No
Forced : No

Text #3
ID : 6
Format : UTF-8
Codec ID : S_TEXT/UTF8
Codec ID/Info : UTF-8 Plain Text
Duration : 1 h 37 min
Bit rate : 30 b/s
Count of elements : 859
Stream size : 21.7 KiB (0%)
Title : Full
Language : English
Default : No
Forced : No

Menu
00:00:00.000 : en:00:00:00.000
00:08:51.364 : en:00:08:51.364
00:20:13.754 : en:00:20:13.754
00:29:07.621 : en:00:29:07.621
00:42:35.261 : en:00:42:35.261
00:52:48.207 : en:00:52:48.207
01:04:32.827 : en:01:04:32.827
01:12:50.825 : en:01:12:50.825
01:25:55.025 : en:01:25:55.025
01:33:23.348 : en:01:33:23.348
01:39:13.906 : en:01:39:13.906

Авторская группа в ВК
pb.wtf



Скачать Дюнкерк через торрент http://img12.lostpic.net/2017/12/08/84d0e85213f05d787c904c9ff2a25b50.jpg Скачать фильм Дюнкерк через торрент бесплантно в хорошем качестве Описание: Фильм расскажет историю чудесного спасения более трехсот тысяч солдат в ходе Дюнкеркской операции, имевшей место в начале Второй ... 9.4 10 15
Info! Золотая раздача, скачанное не засчитывается.
Торрент: Зарегистрирован [2017-12-25 12:38] · скачан: 335 раз
Статус: √ проверено
Размер: 15.65 GB
Как cкачать? Как скачать Дюнкерк через торрент | UTorrent

% Раздел Тема Автор DL S | L
Фильмы с авторской озвучкой [ 15.46 GB ] Дюнкерк / Dunkirk [1958 военный история BDRip 1080p by msltel] AVO msltel Скачать
1 | 0
Фильмы с авторской озвучкой [ 5.12 GB ] Дюнкерк / Dunkirk [1958 военный история BDRip 720p by msltel] AVO msltel Скачать
1 | 1
Фильмы [HD 720p, 1080p] (Хороший звук DUB, MVO) [ 7.54 GB ] Дюнкерк / Dunkirk [2017 Военный история BDRip 720p от _denis_100 | NNNB] DUB + 4хAVO + Original + Sub _denis_100 Скачать
1 | 0
Ultra HD (UHD: 2K, 4K, 8K) — видео сверхвысокой чёткости [ 103.12 GB ] Дюнкерк / Dunkirk [2017 военный история UHD Blu-ray EUR 2160p] - [] [IMAX] sheker187 Скачать
1 | 0
Ultra HD (UHD: 2K, 4K, 8K) — видео сверхвысокой чёткости [ 55.96 GB ] Дюнкерк / Dunkirk [2017 военный история UHD Blu-ray 2160p] - [] [IMAX] sheker187 Скачать
1 | 0
Ultra HD (UHD: 2K, 4K, 8K) — видео сверхвысокой чёткости [ 52.79 GB ] Дюнкерк / Dunkirk [2017 военный история UHD BD Remux 2160p] 2xAVO [Есарев Гаврилов] +2xDUB [IMAX] [Sergesha BD CEE] bober100 Скачать
1 | 0
T Фильмы с украинским озвучиванием [ 1.45 GB ] Дюнкерк / Dunkirk [2017 военный история BDRip] [Ukr DUB] [Line] killermax2013 Скачать
2 | 0


Последний раз редактировалось: Tiberiumsun69 (2018-02-09 08:43), всего редактировалось 5 раз(а)

28-11-2019 20:33  

Отключить всю рекламу на сайте

25-12-2017 12:42 Дюнкерк Скачать торрент  

Всем добрый вечер и приятного просмотра.Фильм интересно снят.Одно событие но с разных точек зрения.Такое не часто увидишь.)pb.wtf



29-09-2020 11:30 Дюнкерк Скачать торрент  

раздайте кто-нибудьpb.wtf



    Дорогой пользователь! Огромная просьба, поблагодарите релизера, оцените раздачу и оставьте свои комментарий, если Вы скачали Дюнкерк через торрент бесплатно! Внесите свою лепту в развитие PiratBit!
    Комментировать посты могут только пользователи прошедшие не сложную регистрацию
    Показать сообщения:    

    Дюнкерк через торрент
    Скачать бесплатно Дюнкерк
    Дюнкерк скачать торрент
    Дюнкерк смотреть онлайн
    Cкачать фильм Дюнкерк бесплатно
    Дюнкерк скачать торрент в хорошем качестве
    Дюнкерк смотреть онлайн бесплатно в хорошем качестве


    Вы не можете начинать темы
    Вы не можете отвечать на сообщения
    Вы не можете редактировать свои сообщения
    Вы не можете удалять свои сообщения
    Вы не можете голосовать в опросах
    Вы не можете прикреплять файлы к сообщениям
    Вы можете скачивать файлы