Ссылка на приватное зеркало нашего сайта всего за 1$. Внимание количество ограничено!!!

2 сезон

iTunes

1 сезон

1

2 сезон

2 сезон

iTunes

1 сезон

RePack

30

Ultimate

ВАЖНО

ИГРА 18+

pack

RePack

MK11
pack

Забери бонус

RePack

jed

!!Акция!!

Alien_Rage

RePack

fifa19

RePack

Assassins Creed: Odyssey

RePack

NEED FOR SPEED™ PAYBACK

4 сезон

9 сезон

Бесстыжие 9 сезон

Все сериалы

все сериалы на PB.wtf

RePack

FAR CRY 5
  

Битва полов / Battle of the Sexes (Джонатан Дэйтон / Jonathan Dayton, Валери Фэрис / Valerie Faris) [2017, драма, комедия, биография, BDRip-AVC] MVO [Лицензия] pb.wtf

Битва полов через торрент pb.wtf

Раздают: 1 [ 0 KB/s ]
Размер: 1.49 GB | Добавлен: 2 года 11 мес. назад | Торрент скачан:554 раза
Скачать  

25-12-2017 17:49 Битва полов Скачать торрент  

Битва полов
Battle of the Sexes

«Он бросил вызов, она изменила историю»


Страна: Великобритания, США
Жанр: драма, комедия, биография, спорт

Год выпуска: 2017
Продолжительность: 02:01:39

Перевод: Профессиональный (многоголосый, закадровый) [Blu-ray CEE]
Субтитры: русские (полные)
Оригинальная аудиодорожка: нет

Режиссер: Джонатан Дэйтон / Jonathan Dayton, Валери Фэрис / Valerie Faris

В ролях: Эмма Стоун, Стив Карелл, Андреа Райзборо, Натали Моралес, Сара Силверман, Билл Пуллман, Алан Камминг, Элизабет Шу, Эрик Кристиан Олсен, Фред Армисен, Марта МакАйзек, Лорен Кляйн

Описание:
История соперничества между 55-летним чемпионом Уимблдона Бобби Риггсом и 29-летней теннисисткой Билли Джин Кинг. Легендарный матч, прошедший в 1973 году, собрал возле экранов более 50 миллионов американцев и доказал, что профессиональные спортсменки способны на равных состязаться с коллегами-мужчинами.



Релиз:

Автор рипа: stalkerok | Моя группа

Сэмпл

Качество видео: BDRip-AVC [The.Battle.of.the.Sexes.2017.BDREMUX.1080p.ExKinoRay]
Формат видео: MKV
Видео кодек: AVC
Аудио кодек: AC3
Видео: 1308 Кбит/сек, 1008x422 (2.40:1), 23,976 кадр/сек, AVC
Аудио: русский, 448 Кбит/сек, 48 КГц, 5.1, AC3
Навигация по главам: есть

---[Information] [25.12.2017 20:11:57] x264 [info]: frame I:1164 Avg QP:18.09 size: 42195
---[Information] [25.12.2017 20:11:57] x264 [info]: frame P:34844 Avg QP:20.35 size: 15096
---[Information] [25.12.2017 20:11:57] x264 [info]: frame B:139001 Avg QP:22.28 size: 4454

General
Unique ID : 233547823459666748581281136971539938761 (0xAFB3ACB6D421821885E667E1FD51FDC9)
Complete name : M:\$new\Battle of the Sexes (2017)\Battle.of.the.Sexes.2017.BDRip-AVC.RUS.stalkerok.new-team.mkv
Format : Matroska
Format version : Version 4 / Version 2
File size : 1.49 GiB
Duration : 2 h 1 min
Overall bit rate : 1 759 kb/s
Movie name : Battle of the Sexes (2017) (Rip by stalkerok)
Encoded date : UTC 2017-12-25 17:33:16
Writing application : mkvmerge v8.6.1 ('Flying') 64bit
Writing library : libebml v1.3.3 + libmatroska v1.4.4

Video
ID : 2
Format : AVC
Format/Info : Advanced Video Codec
Format profile : High@L4.1
Format settings, CABAC : Yes
Format settings, ReFrames : 14 frames
Codec ID : V_MPEG4/ISO/AVC
Duration : 2 h 1 min
Bit rate : 1 309 kb/s
Width : 1 008 pixels
Height : 422 pixels
Display aspect ratio : 2.40:1
Frame rate mode : Constant
Frame rate : 23.976 (24000/1001) FPS
Color space : YUV
Chroma subsampling : 4:2:0
Bit depth : 8 bits
Scan type : Progressive
Bits/(Pixel*Frame) : 0.128
Stream size : 1.11 GiB (74%)
Title : Battle of the Sexes (2017) (Rip by stalkerok)
Writing library : x264 core 152 r2851kMod ba24899
Encoding settings : cabac=1 / ref=14 / deblock=1:-3:-2 / analyse=0x3:0x133 / me=umh / subme=11 / psy=1 / fade_compensate=0.00 / psy_rd=1.00:0.00 / mixed_ref=1 / me_range=32 / chroma_me=1 / trellis=2 / 8x8dct=1 / cqm=0 / deadzone=21,11 / fast_pskip=0 / chroma_qp_offset=-2 / threads=12 / lookahead_threads=3 / sliced_threads=0 / nr=0 / decimate=1 / interlaced=0 / bluray_compat=0 / constrained_intra=0 / bframes=14 / b_pyramid=2 / b_adapt=2 / b_bias=0 / direct=3 / weightb=1 / open_gop=0 / weightp=2 / keyint=240 / keyint_min=23 / scenecut=40 / intra_refresh=0 / rc_lookahead=60 / rc=crf / mbtree=0 / crf=20.2000 / qcomp=0.65 / qpmin=0 / qpmax=69 / qpstep=4 / vbv_maxrate=50000 / vbv_bufsize=62500 / crf_max=0.0 / nal_hrd=none / filler=0 / ip_ratio=1.40 / pb_ratio=1.30 / aq=3:0.90 / zones=165958,175009,q=35
Default : Yes
Forced : No

Audio
ID : 3
Format : AC-3
Format/Info : Audio Coding 3
Mode extension : CM (complete main)
Format settings, Endianness : Big
Codec ID : A_AC3
Duration : 2 h 1 min
Bit rate mode : Constant
Bit rate : 448 kb/s
Channel(s) : 6 channels
Channel positions : Front: L C R, Side: L R, LFE
Sampling rate : 48.0 kHz
Frame rate : 31.250 FPS (1536 spf)
Compression mode : Lossy
Stream size : 390 MiB (25%)
Language : Russian
Default : Yes
Forced : No

Text
ID : 1
Format : UTF-8
Codec ID : S_TEXT/UTF8
Codec ID/Info : UTF-8 Plain Text
Duration : 2 h 0 min
Bit rate : 106 b/s
Count of elements : 1638
Stream size : 94.5 KiB (0%)
Language : Russian
Default : No
Forced : No

Menu
00:00:00.000 : en:00:00:00.000
00:03:34.423 : en:00:03:34.423
00:07:51.304 : en:00:07:51.304
00:10:57.532 : en:00:10:57.532
00:15:13.621 : en:00:15:13.621
00:19:09.523 : en:00:19:09.523
00:22:54.915 : en:00:22:54.915
00:27:57.676 : en:00:27:57.676
00:34:32.946 : en:00:34:32.946
00:38:57.835 : en:00:38:57.835
00:44:57.278 : en:00:44:57.278
00:49:17.079 : en:00:49:17.079
00:54:23.927 : en:00:54:23.927
00:57:54.763 : en:00:57:54.763
01:06:28.276 : en:01:06:28.276
01:15:03.499 : en:01:15:03.499
01:19:37.940 : en:01:19:37.940
01:23:21.914 : en:01:23:21.914
01:30:49.819 : en:01:30:49.819
01:35:11.623 : en:01:35:11.623
01:38:59.142 : en:01:38:59.142
01:43:04.053 : en:01:43:04.053
01:48:47.062 : en:01:48:47.062
01:55:22.749 : en:01:55:22.749
скриншот   скриншот   скриншот   скриншот   скриншот   скриншот   скриншот  
pb.wtf



Скачать Битва полов через торрент http://i6.imageban.ru/out/2017/09/18/2ff75c0c358795c5946784cc1680714d.png Скачать фильм Битва полов через торрент бесплантно в хорошем качестве Описание:История соперничества между 55-летним чемпионом Уимблдона Бобби Риггсом и 29-летней теннисисткой Билли Джин Кинг. Легендарный ... 8.9 10 12
Info! Золотая раздача, скачанное не засчитывается.
Торрент: Зарегистрирован [2017-12-25 17:49] · скачан: 554 раз
Статус: √ проверено
Размер: 1.49 GB
Как cкачать? Как скачать Битва полов через торрент | qTorrent

% Раздел Тема Автор DL S | L
Фильмы (HD 720p, 1080p) (48-60 fps) [ 14.94 GB ] Битва полов / Battle of the Sexes [2017 биография BDRip 1080p / 60 FPS Оригинал] Tiberiumsun69 Скачать
1 | 0
Фильмы 2017 [DVDrip, WEB-DLRip, HDrip] (DUB, MVO) [ 1.37 GB ] Битва полов / Battle of the Sexes [2017 биография HDRip] [MVO] [] killermax2013 Скачать
2 | 0
Фильмы 2017 [DVDrip, WEB-DLRip, HDrip] (DUB, MVO) [ 3.1 GB ] Битва полов / Battle of the Sexes [2017 биография BDRip-AVC] MVO [] sokol_ok Скачать
4 | 0
Фильмы 2017 [DVDrip, WEB-DLRip, HDrip] (DUB, MVO) [ 1.46 GB ] Битва полов / Battle of the Sexes [2017 биография BDRip] MVO [] Twi7ter Скачать
1 | 0
Фильмы с украинским озвучиванием [ 2.18 GB ] Битва полов / Battle of the Sexes [2017 биография BDRip-AVC] [Ukr DUB] [] killermax2013 Скачать
1 | 0
Фильмы (Blu-ray, BD-Remux, HDDVD) [ 31.52 GB ] Битва полов / Battle of the Sexes [2017 биография BD Remux 1080p] MVO [] bober100 Скачать
1 | 0
Фильмы 2017 [DVDrip, WEB-DLRip, HDrip] (DUB, MVO) [ 2.05 GB ] Битва полов / Battle of the Sexes [2017 биография BDRip] [MVO] [] killermax2013 Скачать
1 | 0

28-11-2019 20:33  

Отключить всю рекламу на сайте

    Дорогой пользователь! Огромная просьба, поблагодарите релизера, оцените раздачу и оставьте свои комментарий, если Вы скачали Битва полов через торрент бесплатно! Внесите свою лепту в развитие PiratBit!
    Комментировать посты могут только пользователи прошедшие не сложную регистрацию
    Показать сообщения:    

    Битва полов через торрент
    Скачать бесплатно Битва полов
    Битва полов скачать торрент
    Битва полов смотреть онлайн
    Cкачать фильм Битва полов бесплатно
    Битва полов скачать торрент в хорошем качестве
    Битва полов смотреть онлайн бесплатно в хорошем качестве


    Вы не можете начинать темы
    Вы не можете отвечать на сообщения
    Вы не можете редактировать свои сообщения
    Вы не можете удалять свои сообщения
    Вы не можете голосовать в опросах
    Вы не можете прикреплять файлы к сообщениям
    Вы можете скачивать файлы