1 сезон

1 сезон

iTunes

1

КиноПоиск HD

Кинопоиск HD

iTunes

13

1 сезон

RePack

30

Новинка

ВАЖНО

ИГРА 18+

pack

RePack

MK11
pack

Легкие деньги

RePack

jed

RePack

fifa19

RePack

RDR2

RePack

NEED FOR SPEED™ PAYBACK

4 сезон

9 сезон

Бесстыжие 9 сезон

Все сериалы

все сериалы на PB.wtf

RePack

FAR CRY 5
  
Magnet ссылка

Шерлок: Дело зла / Sherlock [2002, HDRip, VO] от PiratVoice pb.wtf

Шерлок: Дело зла через торрент pb.wtf

Размер: 818 MB | Добавлен: 3 года 3 мес. назад | Торрент скачан:36 раз
Скачать  

25-12-2017 21:49 Шерлок: Дело зла Скачать торрент  

Шерлок: Дело зла / Sherlock (Грэхэм Тикстон) [2002 г., боевик, триллер, драма, криминал, детектив, приключения, HDRip, Любительский (одноголосый) PiratVoice + Original + sub rus]
Год выпуска: 2002
Страна: США, Румыния, Великобритания
Жанр: боевик, триллер, драма, криминал, детектив, приключения
Продолжительность: 01:29:50
Перевод: Любительский (одноголосый) Клерик (PiratVoice)

Режиссер: Грэхэм Тикстон

rating

В ролях: Джеймс Д’Арси, Роджер Морлидж, Габриель Анвар, Винсент Д’Онофрио, Николас Гекс, Питер-Хьюго Дэйли, Ричард Э. Грант

Описание: Шерлок Холмс вновь гонится за профессором Мориарти и стреляет в него. Пуля смертельно ранит. Однако труп профессора не найден, т. к. он попадает в канализацию. Холмс продолжает расследование убийств с мистером Ватсоном и выясняет, что Мориарти жив! Но как доказать это инспектору Лейстреду?

Качество: HDRip
Формат: AVI
Видео кодек: XviD
Аудио кодек: AC3
Видео: Video: Xvid 720x416 29.97fps 964kbps [V: mpeg4 advanced simple profile, yuv420p, 720x416, 964 kb/s]
Аудио#1: Audio: Dolby AC3 48000Hz stereo 192kbps [A: ac3, 48000 Hz, stereo, 192 kb/s]
Аудио#2: Audio: MP3 48000Hz stereo 128kbps [A: mp3, 48000 Hz, stereo, 128 kb/s]
General
Complete name : Шерлок. Дело зла (Sherlock) (2002).avi
Format : AVI
Format/Info : Audio Video Interleave
Format profile : OpenDML
Format settings : rec
File size : 747 MiB
Duration : 1 h 29 min
Overall bit rate : 1 163 kb/s
Writing application : AVI-Mux GUI 1.17.8.3, Feb 16 201019:42:50

Video
ID : 0
Format : MPEG-4 Visual
Format profile : Advanced Simple@L5
Format settings, BVOP : 1
Format settings, QPel : No
Format settings, GMC : No warppoints
Format settings, Matrix : Custom
Codec ID : XVID
Codec ID/Hint : XviD
Duration : 1 h 29 min
Bit rate : 964 kb/s
Width : 720 pixels
Height : 416 pixels
Display aspect ratio : 1.731
Frame rate : 29.970 (30000/1001) FPS
Color space : YUV
Chroma subsampling : 4:2:0
Bit depth : 8 bits
Scan type : Progressive
Compression mode : Lossy
Bits/(Pixel*Frame) : 0.107
Stream size : 620 MiB (83%)
Writing library : XviD 1.2.1 (UTC 2008-12-04)

Audio
ID : 1
Format : AC-3
Format/Info : Audio Coding 3
Format settings, Endianness : Big
Codec ID : 2000
Duration : 1 h 29 min
Bit rate mode : Constant
Bit rate : 192 kb/s
Channel(s) : 2 channels
Channel positions : Front: L R
Sampling rate : 48.0 kHz
Frame rate : 31.250 FPS (1536 SPF)
Bit depth : 16 bits
Compression mode : Lossy
Stream size : 123 MiB (17%)
Alignment : Aligned on interleaves
Interleave, duration : 64 ms (1.92 video frames)
Interleave, preload duration : 192 ms
Service kind : Complete Main


--> НАШ YOUTUBE КАНАЛ
--> МЫ ВКОНТАКТЕ
-- > PiratVoice. Обсуждение и помощь проекту.
pb.wtf



Скачать Шерлок: Дело зла через торрент https://www.kinopoisk.ru/images/film_big/325813.jpg Скачать фильм Шерлок: Дело зла через торрент бесплантно в хорошем качестве Описание: Шерлок Холмс вновь гонится за профессором Мориарти и стреляет в него. Пуля смертельно ранит. Однако труп профессора не найден, т. ... 10 10 7
Info! Золотая раздача, скачанное не засчитывается.
Торрент: Зарегистрирован [2017-12-25 21:49] · скачан: 36 раз
Статус: √ проверено
Размер: 818 MB
Как cкачать? Как скачать Шерлок: Дело зла через торрент | UTorrent



Последний раз редактировалось: Клерик (2017-12-25 22:41), всего редактировалось 1 раз

28-11-2019 20:33  

Отключить всю рекламу на сайте

25-12-2017 22:32 Шерлок: Дело зла Скачать торрент  

pb.wtf



26-12-2017 14:33 Шерлок: Дело зла Скачать торрент  

Топик был перенесен из форума Фильмы 2001-2005 в форум Новости торрент трекера


Воронpb.wtf



26-12-2017 14:34 Шерлок: Дело зла Скачать торрент  

Клерик, pb.wtf



26-12-2017 15:43 Шерлок: Дело зла Скачать торрент  

killermax2013, Ворон, pb.wtf



28-12-2017 19:36 Шерлок: Дело зла Скачать торрент  

такое чувство что никто его не смотрел вообще,в интернете ни одного отзыва о просмотреpb.wtf



28-12-2017 23:19 Шерлок: Дело зла Скачать торрент  

ranetka09, насколько я понял, фильм снимали для показа по тв. Соответственно на дисках скорее всего не выходил. Учитывая возраст, не удивительно, что к нам с трудом попал. Это сейчас всё записывается и гуляет по интернету.
По самому фильму скажу так: мне очень понравился. Люблю Холмса, с ума схожу от викторианского Лондона. В фильме есть всё необходимое: декорации, костюмы, персонажи, атмосфера. Любителям подобного жанра я бы порекомендовал. Очень атмосферный фильм.
Но, если кто из числа "я смотрю только новинки в камрипе", то смело идите мимо, оно не ваше. Тут для ценителей.
Как говорится - выключить интернет, телефон, закутаться в плед и пить чай с печеньем.
Фильм шикарен.pb.wtf



    Дорогой пользователь! Огромная просьба, поблагодарите релизера, оцените раздачу и оставьте свои комментарий, если Вы скачали Шерлок: Дело зла через торрент бесплатно! Внесите свою лепту в развитие PiratBit!
    Комментировать посты могут только пользователи прошедшие не сложную регистрацию
    Показать сообщения:    

    Шерлок: Дело зла через торрент
    Скачать бесплатно Шерлок: Дело зла
    Шерлок: Дело зла скачать торрент
    Шерлок: Дело зла смотреть онлайн
    Cкачать фильм Шерлок: Дело зла бесплатно
    Шерлок: Дело зла скачать торрент в хорошем качестве
    Шерлок: Дело зла смотреть онлайн бесплатно в хорошем качестве


    Вы не можете начинать темы
    Вы не можете отвечать на сообщения
    Вы не можете редактировать свои сообщения
    Вы не можете удалять свои сообщения
    Вы не можете голосовать в опросах
    Вы не можете прикреплять файлы к сообщениям
    Вы можете скачивать файлы