Ссылка на приватное зеркало всего за 1$. Внимание количество ограничено!!!

iTunes

iTunes

iTunes

1

iTunes

iTunes

iTunes

iTunes

iTunes

30
pack

$ от Little Big

ВАЖНО

!!Акция!!

Alien_RageХит недели

RePack

Resident Evil 21

ИГРА 18+

pack

RePack

jed

!!Акция!!

Alien_Rage

RePack

fifa19

RePack

Assassins Creed: Odyssey

RePack

NEED FOR SPEED™ PAYBACK

4 сезон

9 сезон

Бесстыжие 9 сезон

Все сериалы

все сериалы на PB.wtf

RePack

FAR CRY 5
  

Иностранец / The Foreigner (Мартин Кэмпбелл) [2017, боевик, триллер, WEB-DL 1080p] [DUB] [Лицензия / iTunes] pb.wtf

Иностранец через торрент pb.wtf

Размер: 4.18 GB | Добавлен: 2 года 6 мес. назад | Торрент скачан:2366 раз
Скачать  

25-12-2017 22:39 Иностранец Скачать торрент  

Иностранец / The Foreigner Страна: Великобритания Китай США
Производство: Arthur Sarkissian Productions, Huayi Brothers, Quidam Studios, SR Media, thefyzz, The Robert Simonds Company
Год выпуска: 2017
Жанр: боевик, триллер
Продолжительность: 01:53:17
Перевод: Дубляж | «[Лицензия / iTunes]»
Субтитры: нет

Режиссер: Мартин Кэмпбелл
Авторы сценария: Дэвид Маркони, Стефен Лезер

В ролях: Кэти Льюнг, Джеки Чан, Пирс Броснан, Руфус Джонс, Марк Тэнди, Джон Кронин, Каолан Бирн, Донна Бернард, Аарон Монахэн

Описание: Бывший спецагент, ветеран вьетнамской войны Цюань давно сложил оружие и завёл мирную жизнь. Но после того, как в теракте прямо на глазах погибает его дочь-подросток, видя, что власти не спешат разыскивать преступников, Цюань сам начинает поиск убийцы. Он пойдет на всё, чтобы совершить праведное возмездие…




Качество: WEB-DL 1080p
Формат: MKV
Видео кодек: AVC
Аудио кодек: АС3
Видео: AVC, 4500 Кбит/с, 1920x804, 24,000 fps
Аудио: 48 kHz, AC3 Dolby Digital, 6 ch, ~384 kbps - DUB
Аудио: 48 kHz, AC3 Dolby Digital, 6 ch, ~384 kbps - Original
General
Unique ID : 200682332879072204010698350537155506064 (0x96FA02EC6DF98D38A615F3B3E1436F90)
Complete name : E:\1H0CtP4H3c.2O17.D.WeB-DL.1O8Op.mkv
Format : Matroska
Format version : Version 2
File size : 4.18 GiB
Duration : 1 h 53 min
Overall bit rate : 5 280 kb/s
Encoded date : UTC 2017-12-25 20:34:23
Writing application : mkvmerge v8.3.0 ('Over the Horizon') 64bit
Writing library : libebml v1.3.1 + libmatroska v1.4.2

Video
ID : 1
Format : AVC
Format/Info : Advanced Video Codec
Format profile : High@L4
Format settings : CABAC / 5 Ref Frames
Format settings, CABAC : Yes
Format settings, RefFrames : 5 frames
Codec ID : V_MPEG4/ISO/AVC
Duration : 1 h 53 min
Bit rate : 4 406 kb/s
Width : 1 920 pixels
Height : 804 pixels
Display aspect ratio : 2.40:1
Frame rate mode : Constant
Frame rate : 24.000 FPS
Color space : YUV
Chroma subsampling : 4:2:0
Bit depth : 8 bits
Scan type : Progressive
Bits/(Pixel*Frame) : 0.119
Stream size : 3.49 GiB (83%)
Language : English
Default : Yes
Forced : No
Color range : Limited
Color primaries : BT.709
Transfer characteristics : BT.709
Matrix coefficients : BT.709

Audio #1
ID : 2
Format : AC-3
Format/Info : Audio Coding 3
Format settings, Endianness : Big
Codec ID : A_AC3
Duration : 1 h 53 min
Bit rate mode : Constant
Bit rate : 384 kb/s
Channel(s) : 6 channels
Channel positions : Front: L C R, Side: L R, LFE
Sampling rate : 48.0 kHz
Frame rate : 31.250 FPS (1536 SPF)
Bit depth : 16 bits
Compression mode : Lossy
Stream size : 312 MiB (7%)
Language : Russian
Service kind : Complete Main
Default : Yes
Forced : No

Audio #2
ID : 3
Format : AC-3
Format/Info : Audio Coding 3
Format settings, Endianness : Big
Codec ID : A_AC3
Duration : 1 h 53 min
Bit rate mode : Constant
Bit rate : 384 kb/s
Channel(s) : 6 channels
Channel positions : Front: L C R, Side: L R, LFE
Sampling rate : 48.0 kHz
Frame rate : 31.250 FPS (1536 SPF)
Bit depth : 16 bits
Compression mode : Lossy
Stream size : 312 MiB (7%)
Language : English
Service kind : Complete Main
Default : No
Forced : No

Menu
00:00:00.000 : en:Глава 1
00:07:04.458 : en:Глава 2
00:13:39.583 : en:Глава 3
00:21:20.458 : en:Глава 4
00:27:58.041 : en:Глава 5
00:34:41.999 : en:Глава 6
00:40:47.624 : en:Глава 7
00:46:10.832 : en:Глава 8
00:51:57.873 : en:Глава 9
00:57:21.081 : en:Глава 10
01:02:44.872 : en:Глава 11
01:10:39.747 : en:Глава 12
01:16:54.455 : en:Глава 13
01:22:55.871 : en:Глава 14
01:28:47.454 : en:Глава 15
01:33:10.454 : en:Глава 16
01:38:23.079 : en:Глава 17
01:44:49.995 : en:Глава 18
скриншот  скриншот  скриншот  
pb.wtf



Скачать Иностранец через торрент http://img12.lostpic.net/2017/10/12/77ab86cf9e4a64aed0f4fb009d07f1da.png Скачать фильм Иностранец через торрент бесплантно в хорошем качестве Описание: Бывший спецагент, ветеран вьетнамской войны Цюань давно сложил оружие и завёл мирную жизнь. Но после того, как в теракте прямо на ... 9.9 10 45
Info! Золотая раздача, скачанное не засчитывается.
Торрент: Зарегистрирован [2017-12-25 22:39] · скачан: 2 366 раз
Статус: √ проверено
Размер: 4.18 GB
Как cкачать? Как скачать Иностранец через торрент | qTorrent

% Раздел Тема Автор DL S | L
Фильмы [HD 720p, 1080p] (Хороший звук DUB, MVO) [ 8.71 GB ] Иностранец / The Foreigner [2017 BDRip 1080p] [GER Transfer] DUB + AVO - KORSAR kisa1980 Скачать
2 | 0
Фильмы (Blu-ray, BD-Remux, HDDVD) [ 31.57 GB ] Иностранец / The Foreigner [2017 BD Remux 1080p] DUB [] bober100 Скачать
2 | 0
Фильмы 2017 [DVDrip, WEB-DLRip, HDrip] (DUB, MVO) [ 746 MB ] Иностранец / The Foreigner [2017 BDRip-AVC] sokol_ok Скачать
2 | 0
Фильмы 2017 [DVDrip, WEB-DLRip, HDrip] (DUB, MVO) [ 2.9 GB ] Иностранец / The Foreigner [2017 BDRip-AVC] + AVO [Карповский Живов] sokol_ok Скачать
2 | 0
Фильмы 2017 [DVDrip, WEB-DLRip, HDrip] (DUB, MVO) [ 1.34 GB ] Иностранец / The Foreigner [2017 BDRip-AVC] sokol_ok Скачать
2 | 0
Фильмы 2017 [DVDrip, WEB-DLRip, HDrip] (DUB, MVO) [ 1.46 GB ] Иностранец / The Foreigner [2017 BDRip-AVC] DUB [] bober100 Скачать
1 | 0
Фильмы [HD 720p, 1080p] (Хороший звук DUB, MVO) [ 7.24 GB ] Иностранец / The Foreigner [2017 BDRip 720p] DUB [] bober100 Скачать
1 | 0

28-11-2019 20:33  

Отключить всю рекламу на сайте

26-12-2017 05:18 Иностранец Скачать торрент  

Спасибо за фильм!pb.wtf



26-12-2017 09:42 Иностранец Скачать торрент  

Спасибо Вам Огромное
С Наступающими НП2017-18pb.wtf



26-12-2017 10:39 Иностранец Скачать торрент  

Ждал качества - Спасибо!pb.wtf



26-12-2017 12:55 Иностранец Скачать торрент  

Офигенный фильм) Прям как Джон Уик )))pb.wtf



26-12-2017 15:47 Иностранец Скачать торрент  

ParovozikDima писал(а):

Офигенный фильм) Прям как Джон Уик )))

как джон уик? то есть такое же фуфло?pb.wtf



26-12-2017 17:20 Иностранец Скачать торрент  

АццкийПадонак писал(а):

ParovozikDima писал(а):

Офигенный фильм) Прям как Джон Уик )))

как джон уик? то есть такое же фуфло?

Этот фильм и рядом не стоит с тем фуфлом...pb.wtf



26-12-2017 17:53 Иностранец Скачать торрент  

От души!pb.wtf



26-12-2017 20:51 Иностранец Скачать торрент  

Отличный фильм, Джеки Чан на высоте.pb.wtf



27-12-2017 12:30 Иностранец Скачать торрент  

АццкийПадонак писал(а):

ParovozikDima писал(а):

Офигенный фильм) Прям как Джон Уик )))

как джон уик? то есть такое же фуфло?

фуфло ваш Комментарий, а Фильм шикарен!pb.wtf



27-12-2017 15:19 Иностранец Скачать торрент  

killermax2013,спасибо! старичок ещё в форме pb.wtf



27-12-2017 16:08 Иностранец Скачать торрент  

Den, pb.wtf



28-12-2017 10:25 Иностранец Скачать торрент  

Не портите погаными коментами про "Джон Уик" другой фильм. Если бы я следовал Вашим коментариям что он такой же, то смотреть бы однозначно не стал. Релизеру спасибо ))pb.wtf



30-12-2017 21:01 Иностранец Скачать торрент  

фильм понравился! Спасибоpb.wtf



08-01-2018 19:36 Иностранец Скачать торрент  

Спс за релиз, фильм неплохой.pb.wtf



    Дорогой пользователь! Огромная просьба, поблагодарите релизера, оцените раздачу и оставьте свои комментарий, если Вы скачали Иностранец через торрент бесплатно! Внесите свою лепту в развитие PiratBit!
    Комментировать посты могут только пользователи прошедшие не сложную регистрацию
    Показать сообщения:    

    Иностранец через торрент
    Скачать бесплатно Иностранец
    Иностранец скачать торрент
    Иностранец смотреть онлайн
    Cкачать фильм Иностранец бесплатно
    Иностранец скачать торрент в хорошем качестве
    Иностранец смотреть онлайн бесплатно в хорошем качестве


    Вы не можете начинать темы
    Вы не можете отвечать на сообщения
    Вы не можете редактировать свои сообщения
    Вы не можете удалять свои сообщения
    Вы не можете голосовать в опросах
    Вы не можете прикреплять файлы к сообщениям
    Вы можете скачивать файлы