Всегда рабочее зеркало просто перед .vidak.icu напиши любое слово или цифру, Пример http://jch.vidak.icu

>

7.4

iTunes

7.4

2 сезон

6.6

iTunes

1

7.4

2 сезон

7.2

iTunes

6.0

MVO

13

6.1

iTunes

8.3

Пиратка

30

ULTIMATE

pack

9.9

Лицензия

ВАЖНО

ИГРА 18+

pack

7.3

RePack

MK11

7.7

RePack

jed

7.8

RePack

fifa19

8.5

RePack

RDR2

RePack

NEED FOR SPEED™ PAYBACK

1 сезон

9 сезон

Бесстыжие 9 сезон

Все сериалы

все сериалы на PB.wtf

RePack

FAR CRY 5

Anonymous, добрый вечер, мы катастрофически не успеваем собрать деньги на оплату серверов, помогите нам пожалуйста 5,10,15р., для нас важна любая помощь . В качестве благодарности мы отключим Вам всю рекламу на сайте (укажите свой ник в строку Ваше имя)!

×
  
Magnet ссылка

Взрывная блондинка / Atomic Blonde (Дэвид Литч) [2017, Боевик, триллер, детектив, BDRip-AVC] AVO [Есарев] - ExKinoRay pb.wtf

Взрывная блондинка через торрент pb.wtf

Раздают: 1 [ 0 KB/s ]
Размер: 2.3 GB | Добавлен: 4 года назад | Торрент скачан:148 раз
Смотреть онлайн Взрывная блондинка | Скачать    Ребята, помогите собрать деньги на оплату серверов!!!

26-12-2017 00:28 Взрывная блондинка Скачать торрент  

Информация о фильме
Название: Взрывная блондинка
Оригинальное название: Atomic Blonde
Год выпуска: 2017
Жанр: Боевик, триллер, детектив
Страна: США
Студия: 87Eleven, Closed on Mondays Entertainment, Denver and Delilah Productions, Film i Väst 5. Focus Features, Sierra Pictures (III), T.G.I.M Films
Продолжительность: 01:54:45
Перевод: Авторский (одноголосый, закадровый) | Д.Есарев
Режиссер: Дэвид Литч
В ролях: Шарлиз Терон, Джеймс МакЭвой, Эдди Марсан, Джон Гудмен, Тоби Джонс, Джеймс Фолкнер, Роланд Мёллер, София Бутелла, Билл Скарсгард, Сэм Харгрейв

Описание: Агент Лоррейн Бротон, бриллиант в короне Секретной разведывательной службы Ее Величества, не просто мастер шпионажа: она бомбически сексуальна, взрывоопасна и использует весь арсенал своих уникальных умений во время невыполнимых миссий. В неспокойном Берлине, куда ее направляют с заданием вернуть бесценное досье, она вынуждена объединиться с агентом под прикрытием Дэвидом Персивалем. Вместе им предстоит проложить путь через тернии смертельных шпионских игр…



Внимание! Присутствует ненормативная лексика.

Файл
Формат: MKV
Качество: BDRip-AVC
Видео: AVC, 1024х428 (2.40:1), 1968 kbps, 23,976 fps, 0,187 bpp
Аудио 1: 48 kHz, AC3, 5.1, 448 Kbps | RUS |
Аудио 2: 48 kHz, AC3, 5.1, 448 Kbps | ENG |
Субтитры: Русские (форсированные, полные), английские
General
Unique ID : 184488625035915407900421842160507149449 (0x8ACB377BFB22582CA390F983973FDC89)
Complete name : D:\Atomic.Blonde.2017.AVO.BDRip.AVC.ExKinoRay.mkv
Format : Matroska
Format version : Version 2
File size : 2.30 GiB
Duration : 1 h 54 min
Overall bit rate : 2 866 kb/s
Movie name : Atomic Blonde (2017) from ExKinoRay
Encoded date : UTC 2017-12-28 12:25:26
Writing application : mkvmerge v5.6.0 ('Kenya Kane') built on May 27 2012 16:44:04
Writing library : libebml v1.2.3 + libmatroska v1.3.0

Video
ID : 1
Format : AVC
Format/Info : Advanced Video Codec
Format profile : High@L4.1
Format settings, CABAC : Yes
Format settings, ReFrames : 13 frames
Codec ID : V_MPEG4/ISO/AVC
Duration : 1 h 54 min
Bit rate : 1 968 kb/s
Width : 1 024 pixels
Height : 428 pixels
Display aspect ratio : 2.40:1
Frame rate mode : Constant
Frame rate : 23.976 (23976/1000) FPS
Color space : YUV
Chroma subsampling : 4:2:0
Bit depth : 8 bits
Scan type : Progressive
Bits/(Pixel*Frame) : 0.187
Stream size : 1.53 GiB (67%)
Title : Enigma
Writing library : x264 core 152 r2851 ba24899
Encoding settings : cabac=1 / ref=13 / deblock=1:-3:-3 / analyse=0x3:0x113 / me=umh / subme=11 / psy=1 / psy_rd=1.00:0.05 / mixed_ref=1 / me_range=32 / chroma_me=1 / trellis=2 / 8x8dct=1 / cqm=0 / deadzone=21,11 / fast_pskip=0 / chroma_qp_offset=-3 / threads=12 / lookahead_threads=3 / sliced_threads=0 / nr=0 / decimate=0 / interlaced=0 / bluray_compat=0 / constrained_intra=0 / bframes=14 / b_pyramid=2 / b_adapt=2 / b_bias=0 / direct=3 / weightb=1 / open_gop=0 / weightp=2 / keyint=240 / keyint_min=23 / scenecut=40 / intra_refresh=0 / rc_lookahead=40 / rc=2pass / mbtree=0 / bitrate=1968 / ratetol=1.0 / qcomp=0.65 / qpmin=0 / qpmax=51 / qpstep=4 / cplxblur=20.0 / qblur=0.5 / vbv_maxrate=50000 / vbv_bufsize=62500 / nal_hrd=none / filler=0 / ip_ratio=1.40 / pb_ratio=1.30 / aq=3:0.80
Language : English
Default : Yes
Forced : No
Color range : Limited
Color primaries : BT.709
Transfer characteristics : BT.709
Matrix coefficients : BT.709

Audio #1
ID : 2
Format : AC-3
Format/Info : Audio Coding 3
Mode extension : CM (complete main)
Format settings, Endianness : Big
Codec ID : A_AC3
Duration : 1 h 54 min
Bit rate mode : Constant
Bit rate : 448 kb/s
Channel(s) : 6 channels
Channel positions : Front: L C R, Side: L R, LFE
Sampling rate : 48.0 kHz
Frame rate : 31.250 FPS (1536 spf)
Compression mode : Lossy
Stream size : 368 MiB (16%)
Title : AVO (Yesarev)
Language : Russian
Default : Yes
Forced : No

Audio #2
ID : 3
Format : AC-3
Format/Info : Audio Coding 3
Mode extension : CM (complete main)
Format settings, Endianness : Big
Codec ID : A_AC3
Duration : 1 h 54 min
Bit rate mode : Constant
Bit rate : 448 kb/s
Channel(s) : 6 channels
Channel positions : Front: L C R, Side: L R, LFE
Sampling rate : 48.0 kHz
Frame rate : 31.250 FPS (1536 spf)
Compression mode : Lossy
Stream size : 368 MiB (16%)
Language : English
Default : No
Forced : No

Text #1
ID : 4
Format : UTF-8
Codec ID : S_TEXT/UTF8
Codec ID/Info : UTF-8 Plain Text
Title : Forced
Language : Russian
Default : No
Forced : No

Text #2
ID : 5
Format : UTF-8
Codec ID : S_TEXT/UTF8
Codec ID/Info : UTF-8 Plain Text
Title : iTunes
Language : Russian
Default : No
Forced : No

Text #3
ID : 6
Format : UTF-8
Codec ID : S_TEXT/UTF8
Codec ID/Info : UTF-8 Plain Text
Title : Full
Language : English
Default : No
Forced : No

Text #4
ID : 7
Format : UTF-8
Codec ID : S_TEXT/UTF8
Codec ID/Info : UTF-8 Plain Text
Title : SDH
Language : English
Default : No
Forced : No

Text #5
ID : 8
Format : UTF-8
Codec ID : S_TEXT/UTF8
Codec ID/Info : UTF-8 Plain Text
Title : Colored
Language : English
Default : No
Forced : No

Menu
00:00:00.000 : en:Chapter 1
00:06:47.990 : en:Chapter 2
00:11:03.162 : en:Chapter 3
00:18:17.221 : en:Chapter 4
00:24:15.579 : en:Chapter 5
00:27:47.165 : en:Chapter 6
00:32:50.009 : en:Chapter 7
00:36:20.094 : en:Chapter 8
00:40:46.152 : en:Chapter 9
00:47:55.664 : en:Chapter 10
00:53:13.481 : en:Chapter 11
00:59:54.090 : en:Chapter 12
01:03:32.767 : en:Chapter 13
01:08:03.788 : en:Chapter 14
01:10:52.414 : en:Chapter 15
01:18:27.452 : en:Chapter 16
01:24:28.271 : en:Chapter 17
01:32:44.267 : en:Chapter 18
01:42:06.245 : en:Chapter 19
01:48:21.077 : en:Chapter 20
Релиз от:

Автор релиза: pb.wtf



Скачать Взрывная блондинка через торрент http://i91.fastpic.ru/big/2017/1026/8c/afbd31d697e0360b110a76af86bcf28c.jpg Скачать, смотреть онлайн Взрывная блондинка бесплантно в хорошем качестве Описание: Агент Лоррейн Бротон, бриллиант в короне Секретной разведывательной службы Ее Величества, не просто мастер шпионажа: она ... 6 10 2
Info! Золотая раздача, скачанное не засчитывается.
Торрент: Зарегистрирован [2017-12-31 13:31] · скачан: 148 раз
Статус: √ проверено
Размер: 2.3 GB
Как cкачать? Как скачать Взрывная блондинка через торрент | UTorrent

% Раздел Тема Автор DL S | L
Фильмы 2017 [DVDrip, WEB-DLRip, HDrip] (DUB, MVO) [ 2.11 GB ] Взрывная блондинка / Atomic Blonde [2017 WEB-DLRip-AVC] MVO - ExKinoRay Enigma2010 Скачать
1 | 0
Фильмы 2017 [DVDrip, WEB-DLRip, HDrip] (DUB, MVO) [ 2.36 GB ] Взрывная блондинка / Atomic Blonde [2017 HDRip-AVC] MVO - ExKinoRay Enigma2010 Скачать
1 | 0

28-11-2019 20:33  

Отключить всю рекламу на сайте

    Дорогой пользователь! Огромная просьба, поблагодарите релизера, оцените раздачу и оставьте свои комментарий, если Вы скачали Взрывная блондинка через торрент бесплатно!
    Комментировать посты могут только пользователи прошедшие не сложную регистрацию
    Показать сообщения:    

    Взрывная блондинка через торрент
    Скачать бесплатно Взрывная блондинка
    Взрывная блондинка скачать торрент
    Взрывная блондинка смотреть онлайн
    Cкачать фильм Взрывная блондинка бесплатно
    Взрывная блондинка скачать торрент в хорошем качестве
    Взрывная блондинка смотреть онлайн бесплатно в хорошем качестве


    Вы не можете начинать темы
    Вы не можете отвечать на сообщения
    Вы не можете редактировать свои сообщения
    Вы не можете удалять свои сообщения
    Вы не можете голосовать в опросах
    Вы не можете прикреплять файлы к сообщениям
    Вы можете скачивать файлы