Ссылка на приватное зеркало всего за 1$. Внимание количество ограничено!!!

iTunes

iTunes

iTunes

1

iTunes

iTunes

iTunes

iTunes

iTunes

30
pack

$ от Little Big

ВАЖНО

!!Акция!!

Alien_RageХит недели

RePack

Resident Evil 21

ИГРА 18+

pack

RePack

jed

!!Акция!!

Alien_Rage

RePack

fifa19

RePack

Assassins Creed: Odyssey

RePack

NEED FOR SPEED™ PAYBACK

4 сезон

9 сезон

Бесстыжие 9 сезон

Все сериалы

все сериалы на PB.wtf

RePack

FAR CRY 5
  

Максимальный удар / Maximum Impact (Анджей Бартковяк) [2017, боевик, комедия, WEB-DL 1080p] DUB [iTunes] pb.wtf

Максимальный удар через торрент pb.wtf

Размер: 3.62 GB | Добавлен: 2 года 6 мес. назад | Торрент скачан:251 раз
Скачать  

26-12-2017 04:43 Максимальный удар Скачать торрент  

Максимальный удар / Maximum Impact Год выпуска: 2017
Страна: США , Россия
Жанр: боевик, комедия
Продолжительность: 01:45:52
Перевод: Дубляж - [iTunes]
Субтитры: отсутствуют

Режиссер: Анджей Бартковяк

rating

В ролях:

Александр Невский, Евгений Стычкин, Дэнни Трехо, Кит Пауэрс, Том Арнольд, Марк Дакаскос, Эрик Робертс, Бай Лин, Келли Ху, Полина Буторина

Описание:

Лучшим агентам ФСБ и ЦРУ предстоит совместная миссия - остановить преступного лидера, похитившего внучку госсекретаря США, который прибыл в Москву с тайным визитом. В случае провала миру грозит взрывоопасный кризис.

Качество: WEB-DL 1080p
Формат: MKV
Видео кодек: H.264
Аудио кодек: AC3

Видео: 1920x804, 4546kb/s, 25.000fps
Аудио: 384kb/s, 6ch, 48000kHz, AC3 [RUS] | iTunes
скриншот  скриншот  скриншот  скриншот  скриншот  

Формат : Matroska
Версия формата : Version 2
Размер файла : 3,62 Гбайт
Продолжительность : 1 ч. 45 м.
Общий поток : 4932 Кбит/сек
Дата кодирования : UTC 2017-12-24 19:22:32
Программа кодирования : mkvmerge v8.3.0 ('Over the Horizon') 64bit
Библиотека кодирования : libebml v1.3.1 + libmatroska v1.4.2

Видео
Идентификатор : 1
Формат : AVC
Формат/Информация : Advanced Video Codec
Профиль формата : High@L4
Настройки формата : CABAC / 5 Ref Frames
Параметр CABAC формата : Да
Параметр RefFrames формата : 5 кадров
Идентификатор кодека : V_MPEG4/ISO/AVC
Продолжительность : 1 ч. 45 м.
Битрейт : 4546 Кбит/сек
Ширина : 1920 пикселей
Высота : 804 пикселя
Соотношение сторон : 2,40:1
Режим частоты кадров : Постоянный
Частота кадров : 25,000 кадров/сек
Цветовое пространство : YUV
Субдискретизация насыщенности : 4:2:0
Битовая глубина : 8 бит
Тип развёртки : Прогрессивная
Бит/(Пиксели*Кадры) : 0.118
Размер потока : 3,34 Гбайт (92%)
Язык : English
Default : Да
Forced : Нет
Цветовой диапазон : Limited
Основные цвета : BT.709
Характеристики трансфера : BT.709
Коэффициенты матрицы : BT.709

Аудио
Идентификатор : 2
Формат : AC-3
Формат/Информация : Audio Coding 3
Параметр Endianness формата : Big
Идентификатор кодека : A_AC3
Продолжительность : 1 ч. 45 м.
Вид битрейта : Постоянный
Битрейт : 384 Кбит/сек
Каналы : 6 каналов
Расположение каналов : Front: L C R, Side: L R, LFE
Частота : 48,0 КГц
Частота кадров : 31,250 кадров/сек (1536 SPF)
Битовая глубина : 16 бит
Метод сжатия : С потерями
Размер потока : 289 Мбайт (8%)
Язык : Russian
Default : Да
Forced : Нет

Меню
00:00:00.000 : en:Глава 1
00:07:28.240 : en:Глава 2
00:15:21.400 : en:Глава 3
00:23:10.200 : en:Глава 4
00:30:27.000 : en:Глава 5
00:36:42.080 : en:Глава 6
00:43:06.240 : en:Глава 7
00:47:50.680 : en:Глава 8
00:54:16.320 : en:Глава 9
01:00:46.600 : en:Глава 10
01:07:03.480 : en:Глава 11
01:17:05.480 : en:Глава 12
01:22:42.360 : en:Глава 13
01:29:51.400 : en:Глава 14
01:36:11.640 : en:Глава 15

pb.wtf



Скачать Максимальный удар через торрент http://pic1.kartinco.top/images/11/tbsyt.jpg Скачать фильм Максимальный удар через торрент бесплантно в хорошем качестве Описание: Лучшим агентам ФСБ и ЦРУ предстоит совместная миссия - остановить преступного лидера, похитившего внучку госсекретаря США, ... 7.8 10 10
Info! Золотая раздача, скачанное не засчитывается.
Торрент: Зарегистрирован [2017-12-26 04:43] · скачан: 251 раз
Статус: √ проверено
Размер: 3.62 GB
Как cкачать? Как скачать Максимальный удар через торрент | qTorrent

% Раздел Тема Автор DL S | L
Фильмы 2017 [DVDrip, WEB-DLRip, HDrip] (DUB, MVO) [ 1.46 GB ] Максимальный удар / Maximum Impact [2017 BDRip] - [] Twi7ter Скачать
1 | 0
Фильмы 2017 [DVDrip, WEB-DLRip, HDrip] (DUB, MVO) [ 2.47 GB ] Максимальный удар / Maximum Impact [2017 BDRip-AVC ] - ExKinoRay Enigma2010 Скачать
1 | 0
Фильмы 2017 [DVDrip, WEB-DLRip, HDrip] (DUB, MVO) [ 1.46 GB ] Максимальный удар / Maximum Impact [2017 WEB-DLRip | ] oleg8 Скачать
2 | 0

28-11-2019 20:33  

Отключить всю рекламу на сайте

26-12-2017 05:35 Максимальный удар Скачать торрент  

Ждём обзор Евгена))pb.wtf



26-12-2017 07:52 Максимальный удар Скачать торрент  

что-то стыдно стало за кинематографpb.wtf



26-12-2017 09:52 Максимальный удар Скачать торрент  

mrAmerica писал(а):

что-то стыдно стало за кинематограф

Уже давно нет(pb.wtf



26-12-2017 13:45 Максимальный удар Скачать торрент  

Мединскому-прювед! pb.wtf



26-12-2017 17:14 Максимальный удар Скачать торрент  

Они все не успокоились?? ! )) И все еще снимают эти "фильмы"? )))pb.wtf



26-12-2017 21:17 Максимальный удар Скачать торрент  

Artruter писал(а):

Ждём обзор Евгена))

Это первая мысль, после того как увидел описание и список участников фильма.

Невский о Баженове)))

pb.wtf



27-12-2017 13:01 Максимальный удар Скачать торрент  

Рейтинги опять накрутили )))pb.wtf



27-12-2017 15:58 Максимальный удар Скачать торрент  

Artruter писал(а):

Ждём обзор Евгена))

Именно по обзорам Баженова знаю НЕвского. И это смотреть не буду, дождусь-таки обзорчика.)pb.wtf



27-12-2017 22:48 Максимальный удар Скачать торрент  

Этот отстой с запахом блевотины для скрепных плебсовpb.wtf



11-03-2018 21:39 Максимальный удар Скачать торрент  

Дермее, чем это дерьмо я ещё не видел....pb.wtf



    Дорогой пользователь! Огромная просьба, поблагодарите релизера, оцените раздачу и оставьте свои комментарий, если Вы скачали Максимальный удар через торрент бесплатно! Внесите свою лепту в развитие PiratBit!
    Комментировать посты могут только пользователи прошедшие не сложную регистрацию
    Показать сообщения:    

    Максимальный удар через торрент
    Скачать бесплатно Максимальный удар
    Максимальный удар скачать торрент
    Максимальный удар смотреть онлайн
    Cкачать фильм Максимальный удар бесплатно
    Максимальный удар скачать торрент в хорошем качестве
    Максимальный удар смотреть онлайн бесплатно в хорошем качестве


    Вы не можете начинать темы
    Вы не можете отвечать на сообщения
    Вы не можете редактировать свои сообщения
    Вы не можете удалять свои сообщения
    Вы не можете голосовать в опросах
    Вы не можете прикреплять файлы к сообщениям
    Вы можете скачивать файлы