Ссылка на приватное зеркало всего за 1$. Внимание количество ограничено!!!

iTunes

iTunes

iTunes

1

iTunes

iTunes

iTunes

iTunes

iTunes

30
pack

$ от Little Big

ВАЖНО

!!Акция!!

Alien_RageХит недели

RePack

Resident Evil 21

ИГРА 18+

pack

RePack

jed

!!Акция!!

Alien_Rage

RePack

fifa19

RePack

Assassins Creed: Odyssey

RePack

NEED FOR SPEED™ PAYBACK

4 сезон

9 сезон

Бесстыжие 9 сезон

Все сериалы

все сериалы на PB.wtf

RePack

FAR CRY 5
  

Иностранец / The Foreigner (Мартин Кэмпбелл) [2017, боевик, триллер, WEB-DL 720p] [DUB] [Лицензия / iTunes] pb.wtf

Иностранец через торрент pb.wtf

Размер: 3.79 GB | Добавлен: 2 года 6 мес. назад | Торрент скачан:1108 раз
Скачать  

26-12-2017 06:22 Иностранец Скачать торрент  

Иностранец / The Foreigner Страна: Великобритания Китай США
Производство: Arthur Sarkissian Productions, Huayi Brothers, Quidam Studios, SR Media, thefyzz, The Robert Simonds Company
Год выпуска: 2017
Жанр: боевик, триллер
Продолжительность: 01:53:17
Перевод: Дубляж | «[Лицензия / iTunes]»
Субтитры: нет

Режиссер: Мартин Кэмпбелл
Авторы сценария: Дэвид Маркони, Стефен Лезер

В ролях: Кэти Льюнг, Джеки Чан, Пирс Броснан, Руфус Джонс, Марк Тэнди, Джон Кронин, Каолан Бирн, Донна Бернард, Аарон Монахэн

Описание: Бывший спецагент, ветеран вьетнамской войны Цюань давно сложил оружие и завёл мирную жизнь. Но после того, как в теракте прямо на глазах погибает его дочь-подросток, видя, что власти не спешат разыскивать преступников, Цюань сам начинает поиск убийцы. Он пойдет на всё, чтобы совершить праведное возмездие…




Качество: WEB-DL 720p
Формат: MKV
Видео кодек: AVC
Аудио кодек: АС3
Видео: 1280x536, 24.000 fps, 3925 Кбит/с
Аудио: 48 kHz, AC3 Dolby Digital, 6 ch, ~384 kbps - DUB
Аудио: 48 kHz, AC3 Dolby Digital, 6 ch, ~384 kbps - ENG
General
Unique ID : 233278950141504787853810523630021893963 (0xAF7FE43C713121E5B0B325F0DF97DF4B)
Complete name : F:\InoStRaneC.2O17.D.WEB-DL.72Op.mkv
Format : Matroska
Format version : Version 2
File size : 3.79 GiB
Duration : 1 h 53 min
Overall bit rate : 4 789 kb/s
Encoded date : UTC 2017-12-25 20:33:29
Writing application : mkvmerge v8.3.0 ('Over the Horizon') 64bit
Writing library : libebml v1.3.1 + libmatroska v1.4.2

Video
ID : 1
Format : AVC
Format/Info : Advanced Video Codec
Format profile : Main@L3.1
Format settings : 2 Ref Frames
Format settings, CABAC : No
Format settings, RefFrames : 2 frames
Codec ID : V_MPEG4/ISO/AVC
Duration : 1 h 53 min
Bit rate : 3 925 kb/s
Width : 1 280 pixels
Height : 536 pixels
Display aspect ratio : 2.40:1
Frame rate mode : Constant
Frame rate : 24.000 FPS
Color space : YUV
Chroma subsampling : 4:2:0
Bit depth : 8 bits
Scan type : Progressive
Bits/(Pixel*Frame) : 0.238
Stream size : 3.11 GiB (82%)
Language : English
Default : Yes
Forced : No
Color range : Limited
Color primaries : BT.709
Transfer characteristics : BT.709
Matrix coefficients : BT.709

Audio #1
ID : 2
Format : AC-3
Format/Info : Audio Coding 3
Format settings, Endianness : Big
Codec ID : A_AC3
Duration : 1 h 53 min
Bit rate mode : Constant
Bit rate : 384 kb/s
Channel(s) : 6 channels
Channel positions : Front: L C R, Side: L R, LFE
Sampling rate : 48.0 kHz
Frame rate : 31.250 FPS (1536 SPF)
Bit depth : 16 bits
Compression mode : Lossy
Stream size : 312 MiB (8%)
Language : Russian
Service kind : Complete Main
Default : Yes
Forced : No

Audio #2
ID : 3
Format : AC-3
Format/Info : Audio Coding 3
Format settings, Endianness : Big
Codec ID : A_AC3
Duration : 1 h 53 min
Bit rate mode : Constant
Bit rate : 384 kb/s
Channel(s) : 6 channels
Channel positions : Front: L C R, Side: L R, LFE
Sampling rate : 48.0 kHz
Frame rate : 31.250 FPS (1536 SPF)
Bit depth : 16 bits
Compression mode : Lossy
Stream size : 312 MiB (8%)
Language : English
Service kind : Complete Main
Default : No
Forced : No

Menu
00:00:00.000 : en:Глава 1
00:07:04.458 : en:Глава 2
00:13:39.583 : en:Глава 3
00:21:20.458 : en:Глава 4
00:27:58.041 : en:Глава 5
00:34:41.999 : en:Глава 6
00:40:47.624 : en:Глава 7
00:46:10.832 : en:Глава 8
00:51:57.873 : en:Глава 9
00:57:21.081 : en:Глава 10
01:02:44.872 : en:Глава 11
01:10:39.747 : en:Глава 12
01:16:54.455 : en:Глава 13
01:22:55.871 : en:Глава 14
01:28:47.454 : en:Глава 15
01:33:10.454 : en:Глава 16
01:38:23.079 : en:Глава 17
01:44:49.995 : en:Глава 18
pb.wtf



Скачать Иностранец через торрент http://i98.fastpic.ru/big/2017/1201/46/c5067140894cb5c2d2152c8a80c0c746.png Скачать фильм Иностранец через торрент бесплантно в хорошем качестве Описание: Бывший спецагент, ветеран вьетнамской войны Цюань давно сложил оружие и завёл мирную жизнь. Но после того, как в теракте прямо на ... 9.7 10 23
Info! Золотая раздача, скачанное не засчитывается.
Торрент: Зарегистрирован [2017-12-26 06:22] · скачан: 1 108 раз
Статус: √ проверено
Размер: 3.79 GB
Как cкачать? Как скачать Иностранец через торрент | qTorrent

% Раздел Тема Автор DL S | L
Фильмы [HD 720p, 1080p] (Хороший звук DUB, MVO) [ 8.71 GB ] Иностранец / The Foreigner [2017 BDRip 1080p] [GER Transfer] DUB + AVO - KORSAR kisa1980 Скачать
2 | 0
Фильмы (Blu-ray, BD-Remux, HDDVD) [ 31.57 GB ] Иностранец / The Foreigner [2017 BD Remux 1080p] DUB [] bober100 Скачать
2 | 0
Фильмы 2017 [DVDrip, WEB-DLRip, HDrip] (DUB, MVO) [ 746 MB ] Иностранец / The Foreigner [2017 BDRip-AVC] sokol_ok Скачать
2 | 0
Фильмы 2017 [DVDrip, WEB-DLRip, HDrip] (DUB, MVO) [ 2.9 GB ] Иностранец / The Foreigner [2017 BDRip-AVC] + AVO [Карповский Живов] sokol_ok Скачать
2 | 0
Фильмы 2017 [DVDrip, WEB-DLRip, HDrip] (DUB, MVO) [ 1.34 GB ] Иностранец / The Foreigner [2017 BDRip-AVC] sokol_ok Скачать
2 | 0
Фильмы 2017 [DVDrip, WEB-DLRip, HDrip] (DUB, MVO) [ 1.46 GB ] Иностранец / The Foreigner [2017 BDRip-AVC] DUB [] bober100 Скачать
1 | 0
Фильмы [HD 720p, 1080p] (Хороший звук DUB, MVO) [ 7.24 GB ] Иностранец / The Foreigner [2017 BDRip 720p] DUB [] bober100 Скачать
1 | 0

28-11-2019 20:33  

Отключить всю рекламу на сайте

27-12-2017 12:26 Иностранец Скачать торрент  

Фильм стоит посмотреть!Спс автору раздачи!pb.wtf



29-12-2017 10:35 Иностранец Скачать торрент  

джеки такой старый..
фильм приятныйpb.wtf



    Дорогой пользователь! Огромная просьба, поблагодарите релизера, оцените раздачу и оставьте свои комментарий, если Вы скачали Иностранец через торрент бесплатно! Внесите свою лепту в развитие PiratBit!
    Комментировать посты могут только пользователи прошедшие не сложную регистрацию
    Показать сообщения:    

    Иностранец через торрент
    Скачать бесплатно Иностранец
    Иностранец скачать торрент
    Иностранец смотреть онлайн
    Cкачать фильм Иностранец бесплатно
    Иностранец скачать торрент в хорошем качестве
    Иностранец смотреть онлайн бесплатно в хорошем качестве


    Вы не можете начинать темы
    Вы не можете отвечать на сообщения
    Вы не можете редактировать свои сообщения
    Вы не можете удалять свои сообщения
    Вы не можете голосовать в опросах
    Вы не можете прикреплять файлы к сообщениям
    Вы можете скачивать файлы