2 сезон

iTunes

MVO

1

2 сезон

iTunes

iTunes

1 сезон

RePack

30

Ultimate

ВАЖНО

ИГРА 18+

pack

RePack

MK11
pack

Легкие деньги

RePack

jed

RePack

fifa19

RePack

RDR2

RePack

NEED FOR SPEED™ PAYBACK

4 сезон

9 сезон

Бесстыжие 9 сезон

Все сериалы

все сериалы на PB.wtf

RePack

FAR CRY 5

Anonymous, добрый день, мы не успеваем собрать деньги на оплату серверов за декабрь и январь, помогите нам пожалуйста в это трудное время. В качестве благодарности мы отключим Вам всю рекламу на сайте (укажите свой ник в строку Ваше имя)!

×
  
Magnet ссылка

Тайна 7 сестер / Seven Sisters (Томми Виркола) [2017 г., фантастика, триллер, BDRip-AVC] Dub [Лицензия], AVO [Живов] - ExKinoRay pb.wtf

Тайна 7 сестер через торрент pb.wtf

Размер: 2.38 GB | Добавлен: 2 года 11 мес. назад | Торрент скачан:385 раз
Скачать  

26-12-2017 06:29 Тайна 7 сестер Скачать торрент  

Информация о фильме
Название: Тайна 7 сестер
Оригинальное название: Seven Sisters
Год выхода: 2017
Жанр: фантастика, триллер
Страна: Великобритания, Франция, Бельгия, США
Студия: Nexus Factory, Raffaella Productions, SND
Продолжительность: 02:03:31
Перевод: Дублированный (Лицензия)
Авторский (закадровый) Живов
Режиссер: Томми Виркола
В ролях: Нуми Рапас, Марван Кензари, Уиллем Дефо, Роберт Вагнер, Гленн Клоуз, Лара Дэкаро, Пол Сверре Валхейм Хаген, Адетомива Едун, Кристиан Рубек

Описание:
В мире, где семейным парам разрешено иметь только одного ребенка, рождается семь сестер-близняшек. Родители решают сохранить всех и дают малышкам имена в честь дней недели. Так девочки и появляются на людях — каждая в свой день. Но однажды Понедельник пропадает...

rating

Файл
Контейнер: MKV
Качество: BDRip-AVC
Видео: AVC, 1024x428 (2.40:1), 24.000 fps, 1410 Kbps, 0.134 bit/pixel
Аудио 1: AC-3, 48.0 KHz, 5.1 ch, 448 Kbps, CBR (Russian) Dub
Аудио 2: AC-3, 48.0 KHz, 5.1 ch, 448 Kbps, CBR (Russian)
Аудио 3: AC-3, 48.0 KHz, 5.1 ch, 448 Kbps, CBR (ENG)
Субтитры: Русские, английские

Без какой-либо рекламы!!
General
Unique ID : 242709260924251491111794155505675487041 (0xB6981A74739EF8E88D55D52E58714741)
Complete name : D:\What.Happened.to.Monday.2017.BDRip.AVC.ExKinoRay.mkv
Format : Matroska
Format version : Version 2
File size : 2.38 GiB
Duration : 2 h 3 min
Overall bit rate : 2 754 kb/s
Movie name : What Happened to Monday 2017 from ExKinoRay
Encoded date : UTC 2018-02-05 22:55:42
Writing application : mkvmerge v5.6.0 ('Kenya Kane') built on May 27 2012 16:44:04
Writing library : libebml v1.2.3 + libmatroska v1.3.0

Video
ID : 1
Format : AVC
Format/Info : Advanced Video Codec
Format profile : High@L4.1
Format settings, CABAC : Yes
Format settings, ReFrames : 12 frames
Codec ID : V_MPEG4/ISO/AVC
Duration : 2 h 3 min
Bit rate : 1 410 kb/s
Width : 1 024 pixels
Height : 428 pixels
Display aspect ratio : 2.40:1
Frame rate mode : Constant
Frame rate : 24.000 FPS
Color space : YUV
Chroma subsampling : 4:2:0
Bit depth : 8 bits
Scan type : Progressive
Bits/(Pixel*Frame) : 0.134
Stream size : 1.17 GiB (49%)
Title : Enigma
Writing library : x264 core 152 r2851 ba24899
Encoding settings : cabac=1 / ref=12 / deblock=1:-2:-2 / analyse=0x3:0x113 / me=umh / subme=11 / psy=1 / psy_rd=1.03:0.10 / mixed_ref=1 / me_range=32 / chroma_me=1 / trellis=2 / 8x8dct=1 / cqm=0 / deadzone=21,11 / fast_pskip=0 / chroma_qp_offset=-3 / threads=12 / lookahead_threads=3 / sliced_threads=0 / nr=0 / decimate=0 / interlaced=0 / bluray_compat=0 / constrained_intra=0 / bframes=10 / b_pyramid=2 / b_adapt=2 / b_bias=0 / direct=3 / weightb=1 / open_gop=0 / weightp=2 / keyint=240 / keyint_min=24 / scenecut=40 / intra_refresh=0 / rc_lookahead=40 / rc=2pass / mbtree=0 / bitrate=1410 / ratetol=1.0 / qcomp=0.66 / qpmin=0 / qpmax=51 / qpstep=4 / cplxblur=20.0 / qblur=0.5 / vbv_maxrate=50000 / vbv_bufsize=62500 / nal_hrd=none / filler=0 / ip_ratio=1.40 / pb_ratio=1.30 / aq=3:0.80
Language : English
Default : Yes
Forced : No
Color range : Limited
Color primaries : BT.709
Transfer characteristics : BT.709
Matrix coefficients : BT.709

Audio #1
ID : 2
Format : AC-3
Format/Info : Audio Coding 3
Mode extension : CM (complete main)
Format settings, Endianness : Big
Codec ID : A_AC3
Duration : 2 h 3 min
Bit rate mode : Constant
Bit rate : 448 kb/s
Channel(s) : 6 channels
Channel positions : Front: L C R, Side: L R, LFE
Sampling rate : 48.0 kHz
Frame rate : 31.250 FPS (1536 spf)
Compression mode : Lossy
Stream size : 396 MiB (16%)
Title : Dub (License)
Language : Russian
Default : Yes
Forced : No

Audio #2
ID : 3
Format : AC-3
Format/Info : Audio Coding 3
Mode extension : CM (complete main)
Format settings, Endianness : Big
Codec ID : A_AC3
Duration : 2 h 3 min
Bit rate mode : Constant
Bit rate : 448 kb/s
Channel(s) : 6 channels
Channel positions : Front: L C R, Side: L R, LFE
Sampling rate : 48.0 kHz
Frame rate : 31.250 FPS (1536 spf)
Compression mode : Lossy
Stream size : 396 MiB (16%)
Title : AVO (Givov)
Language : Russian
Default : No
Forced : No

Audio #3
ID : 4
Format : AC-3
Format/Info : Audio Coding 3
Mode extension : CM (complete main)
Format settings, Endianness : Big
Codec ID : A_AC3
Duration : 2 h 3 min
Bit rate mode : Constant
Bit rate : 448 kb/s
Channel(s) : 6 channels
Channel positions : Front: L C R, Side: L R, LFE
Sampling rate : 48.0 kHz
Frame rate : 31.250 FPS (1536 spf)
Compression mode : Lossy
Stream size : 396 MiB (16%)
Language : English
Default : No
Forced : No

Text #1
ID : 5
Format : UTF-8
Codec ID : S_TEXT/UTF8
Codec ID/Info : UTF-8 Plain Text
Title : Full
Language : Russian
Default : No
Forced : No

Text #2
ID : 6
Format : UTF-8
Codec ID : S_TEXT/UTF8
Codec ID/Info : UTF-8 Plain Text
Title : Full
Language : English
Default : No
Forced : No

Text #3
ID : 7
Format : UTF-8
Codec ID : S_TEXT/UTF8
Codec ID/Info : UTF-8 Plain Text
Title : SDH
Language : English
Default : No
Forced : No

Menu
00:00:00.000 : fr:Chapitre 01
00:09:13.666 : fr:Chapitre 02
00:20:16.750 : fr:Chapitre 03
00:29:12.333 : fr:Chapitre 04
00:40:32.000 : fr:Chapitre 05
00:51:51.750 : fr:Chapitre 06
00:58:04.791 : fr:Chapitre 07
01:14:19.833 : fr:Chapitre 08
01:22:25.000 : fr:Chapitre 09
01:32:37.875 : fr:Chapitre 10
01:42:29.791 : fr:Chapitre 11
01:49:55.875 : fr:Chapitre 12
Релиз от:

Автор релиза: pb.wtf



Скачать Тайна 7 сестер через торрент http://i92.fastpic.ru/big/2017/0826/27/cfbd77aca4c1d7622588d96079791427.jpg Скачать фильм Тайна 7 сестер через торрент бесплантно в хорошем качестве Описание:В мире, где семейным парам разрешено иметь только одного ребенка, рождается семь сестер-близняшек. Родители решают сохранить всех ... 9.4 10 59
Info! Золотая раздача, скачанное не засчитывается.
Торрент: Зарегистрирован [2018-02-06 00:40] · скачан: 385 раз
Статус: √ проверено
Размер: 2.38 GB
Как cкачать? Как скачать Тайна 7 сестер через торрент | UTorrent



Последний раз редактировалось: Enigma2010 (2018-02-06 00:50), всего редактировалось 5 раз(а)

28-11-2019 20:33  

Отключить всю рекламу на сайте

26-12-2017 17:44 Тайна 7 сестер Скачать торрент  

Добротный фильм,смотрел в не хорошем качестве.Нуми Рапас молодчина,после просмотра девушки с татуировкой дракона,стараюсь не пропускать фильмы с её участием.Автору поклон за релиз. pb.wtf



27-12-2017 10:00 Тайна 7 сестер Скачать торрент  

хороший фильмpb.wtf



29-12-2017 22:41 Тайна 7 сестер Скачать торрент  

Замена на звук с дубляжом iTunes.pb.wtf



30-12-2017 19:03 Тайна 7 сестер Скачать торрент  

тупая концовка с чем боролись к тому и вернутся . заполонят полностью а дальше что , друг-друга жрать будут . pb.wtf



05-01-2018 08:16 Тайна 7 сестер Скачать торрент  

Отличный фильм! Советую!pb.wtf



06-02-2018 00:40 Тайна 7 сестер Скачать торрент  

Замена на лицензию, добавлен авторский Живова и русские субтитры.pb.wtf



    Дорогой пользователь! Огромная просьба, поблагодарите релизера, оцените раздачу и оставьте свои комментарий, если Вы скачали Тайна 7 сестер через торрент бесплатно! Внесите свою лепту в развитие PiratBit!
    Комментировать посты могут только пользователи прошедшие не сложную регистрацию
    Показать сообщения:    

    Тайна 7 сестер через торрент
    Скачать бесплатно Тайна 7 сестер
    Тайна 7 сестер скачать торрент
    Тайна 7 сестер смотреть онлайн
    Cкачать фильм Тайна 7 сестер бесплатно
    Тайна 7 сестер скачать торрент в хорошем качестве
    Тайна 7 сестер смотреть онлайн бесплатно в хорошем качестве


    Вы не можете начинать темы
    Вы не можете отвечать на сообщения
    Вы не можете редактировать свои сообщения
    Вы не можете удалять свои сообщения
    Вы не можете голосовать в опросах
    Вы не можете прикреплять файлы к сообщениям
    Вы можете скачивать файлы