Ссылка на приватное зеркало нашего сайта всего за 1$. Внимание количество ограничено!!!

2 сезон

iTunes

1 сезон

1

iTunes

iTunes

iTunes

1 сезон

RePack

30

ИГРА 18+

pack

ВАЖНО

!!Акция!!

Alien_RageХит недели

RePack

MK11
pack

Забери бонус

RePack

jed

!!Акция!!

Alien_Rage

RePack

fifa19

RePack

Assassins Creed: Odyssey

RePack

NEED FOR SPEED™ PAYBACK

4 сезон

9 сезон

Бесстыжие 9 сезон

Все сериалы

все сериалы на PB.wtf

RePack

FAR CRY 5
  

Отчим / The Stepfather (Джозеф Рубин) [1987, ужасы, триллер, BDRip 1080p by msltel] MVO, 2 x DVO, AVO pb.wtf

Отчим через торрент pb.wtf

Размер: 12.24 GB | Добавлен: 2 года 9 мес. назад | Торрент скачан:9 раз
Скачать  

26-12-2017 07:52 Отчим Скачать торрент  

Название: Отчим
Оригинальное название: The Stepfather
Год выпуска: 1987
Страна: США, Великобритания
Жанр: ужасы, триллер
Продолжительность: 01:29:05
Перевод: профессиональный многоголосый, профессиональный двухголосый, авторский

Режиссер: Джозеф Рубин
В ролях: Терри О`Куинн, Джилл Шолен, Шелли Хэк, Чарльз Лэниер, Стивен Шеллен, Стивен Е. Миллер, Робин Стиван, Джефф Шульц, Линдсей Борн, Анна Хэган, Джиллиан Барбер, Блу Манкума, Джексон Дэвис, Сандра Хэд, Габриель Роз, Ричард Сарджент, Рошелль Гринвуд, Дон С. Уильямс, Дон Маккэй

О фильме: Джерри Блейк воплощает в себе все мечты матерей-одиночек. Он красив, умён, добр и безумно любит детей. Каждая женщина хочет опереться на его сильное плечо и позволить ему управлять собственной жизнью. Несмотря на огромный перечень достоинств, Джерри представляет смертельную опасность для окружающих. Он уже долгое время мечется в поисках идеальной американской семьи, и каждый раз, когда его постигает разочарование, он безжалостно убивает всех своих домочадцев. После одного из таких случаев Блейк переезжает в другой город, где находит себе очередных подопытных. Пока в новом доме царит спокойствие, но его падчерица оказывается слишком любопытной...



Качество: BDRip 1080p
Формат: MKV
Видео: MPEG-4 AVC, 16.1 Mбит/с, 1920x1080, 23.976 кадр/с
Аудио 1: русский, AC3, 192 kbps, 2 ch, 48 kHz [профессиональный многоголосый, BaibaKo]
Аудио 2: русский, AC3, 192 kbps, 2 ch, 48 kHz [профессиональный двухголосый, HTB]
Аудио 3: русский, AC3, 192 kbps, 2 ch, 48 kHz [профессиональный двухголосый, Екатеринбург Арт]
Аудио 4: русский, DTS, 1509 kbps, 2 ch, 48 kHz [авторский, Алексей Михалёв]
Аудио 5: английский, DTS, 1509 kbps, 2 ch, 48 kHz [оригинал]
Субтитры 1: русские
Субтитры 2: английские
Неименованные главы/чаптеры.
Общее
Уникальный идентификатор : 242815644476440164807560564949378693921 (0xB6AC9791A7F7F7659AAD26DC5BFC7B21)
Полное имя : D:\Video\Отчим.1987.BDRip.1080p by msltel.mkv
Формат : Matroska
Версия формата : Version 4 / Version 2
Размер файла : 12,2 Гбайт
Продолжительность : 1 ч. 29 м.
Общий поток : 19,7 Мбит/сек
Название фильма : Rip by msltel
Дата кодирования : UTC 2017-12-26 03:20:43
Программа кодирования : mkvmerge v8.2.0 ('World of Adventure') 64bit
Библиотека кодирования : libebml v1.3.1 + libmatroska v1.4.2

Видео
Идентификатор : 1
Формат : AVC
Формат/Информация : Advanced Video Codec
Профиль формата : High@L4.1
Настройки формата : CABAC / 4 Ref Frames
Параметр CABAC формата : Да
Параметр RefFrames формата : 4 кадра
Идентификатор кодека : V_MPEG4/ISO/AVC
Продолжительность : 1 ч. 28 м.
Битрейт : 16,1 Мбит/сек
Ширина : 1920 пикселей
Высота : 1080 пикселей
Соотношение сторон : 16:9
Режим частоты кадров : Постоянный
Частота кадров : 23,976 (24000/1001) кадра/сек
Цветовое пространство : YUV
Субдискретизация насыщенности : 4:2:0
Битовая глубина : 8 бит
Тип развёртки : Прогрессивная
Бит/(Пиксели*Кадры) : 0.324
Размер потока : 10,0 Гбайт (82%)
Библиотека кодирования : x264 core 146 r2538 121396c
Настройки программы : cabac=1 / ref=4 / deblock=1:-3:-2 / analyse=0x3:0x113 / me=umh / subme=11 / psy=1 / psy_rd=1.00:0.15 / mixed_ref=1 / me_range=32 / chroma_me=1 / trellis=2 / 8x8dct=1 / cqm=0 / deadzone=21,11 / fast_pskip=0 / chroma_qp_offset=-3 / threads=6 / lookahead_threads=1 / sliced_threads=0 / nr=0 / decimate=1 / interlaced=0 / bluray_compat=0 / constrained_intra=0 / bframes=9 / b_pyramid=2 / b_adapt=2 / b_bias=0 / direct=1 / weightb=1 / open_gop=0 / weightp=2 / keyint=230 / keyint_min=23 / scenecut=40 / intra_refresh=0 / rc_lookahead=40 / rc=crf / mbtree=0 / crf=19.6 / qcomp=0.60 / qpmin=0 / qpmax=69 / qpstep=4 / vbv_maxrate=62500 / vbv_bufsize=78125 / crf_max=0.0 / nal_hrd=none / filler=0 / ip_ratio=1.40 / pb_ratio=1.30 / aq=1:1.00
Язык : English
Default : Да
Forced : Нет

Аудио #1
Идентификатор : 2
Формат : AC-3
Формат/Информация : Audio Coding 3
Идентификатор кодека : A_AC3
Продолжительность : 1 ч. 29 м.
Вид битрейта : Постоянный
Битрейт : 192 Кбит/сек
Каналы : 2 канала
Расположение каналов : Front: L R
Частота : 48,0 КГц
Частота кадров : 31,250 кадров/сек (1536 SPF)
Битовая глубина : 16 бит
Метод сжатия : С потерями
Размер потока : 122 Мбайт (1%)
Заголовок : MVO.BaibaKo
Язык : Russian
ServiceKind/String : Complete Main
Default : Да
Forced : Нет

Аудио #2
Идентификатор : 3
Формат : AC-3
Формат/Информация : Audio Coding 3
Идентификатор кодека : A_AC3
Продолжительность : 1 ч. 28 м.
Вид битрейта : Постоянный
Битрейт : 192 Кбит/сек
Каналы : 2 канала
Расположение каналов : Front: L R
Частота : 48,0 КГц
Частота кадров : 31,250 кадров/сек (1536 SPF)
Битовая глубина : 16 бит
Метод сжатия : С потерями
Размер потока : 122 Мбайт (1%)
Заголовок : DVO.HTB
Язык : Russian
ServiceKind/String : Complete Main
Default : Нет
Forced : Нет

Аудио #3
Идентификатор : 4
Формат : AC-3
Формат/Информация : Audio Coding 3
Идентификатор кодека : A_AC3
Продолжительность : 1 ч. 28 м.
Вид битрейта : Постоянный
Битрейт : 192 Кбит/сек
Каналы : 2 канала
Расположение каналов : Front: L R
Частота : 48,0 КГц
Частота кадров : 31,250 кадров/сек (1536 SPF)
Битовая глубина : 16 бит
Метод сжатия : С потерями
Размер потока : 122 Мбайт (1%)
Заголовок : DVO.Екатеринбург Арт
Язык : Russian
ServiceKind/String : Complete Main
Default : Нет
Forced : Нет

Аудио #4
Идентификатор : 5
Формат : DTS
Формат/Информация : Digital Theater Systems
Идентификатор кодека : A_DTS
Продолжительность : 1 ч. 28 м.
Вид битрейта : Постоянный
Битрейт : 1509 Кбит/сек
Каналы : 2 канала
Расположение каналов : Front: L R
Частота : 48,0 КГц
Частота кадров : 93,750 кадра/сек (512 SPF)
Битовая глубина : 24 бит
Метод сжатия : С потерями
Размер потока : 959 Мбайт (8%)
Заголовок : Алексей Михалёв
Язык : Russian
Default : Нет
Forced : Нет

Аудио #5
Идентификатор : 7
Формат : DTS
Формат/Информация : Digital Theater Systems
Идентификатор кодека : A_DTS
Продолжительность : 1 ч. 28 м.
Вид битрейта : Постоянный
Битрейт : 1509 Кбит/сек
Каналы : 2 канала
Расположение каналов : Front: L R
Частота : 48,0 КГц
Частота кадров : 93,750 кадра/сек (512 SPF)
Битовая глубина : 24 бит
Метод сжатия : С потерями
Размер потока : 959 Мбайт (8%)
Заголовок : original
Язык : English
Default : Нет
Forced : Нет

Текст
Идентификатор : 6
Формат : UTF-8
Идентификатор кодека : S_TEXT/UTF8
Идентификатор кодека/Информация : UTF-8 Plain Text
Продолжительность : 1 ч. 16 м.
Битрейт : 47 бит/сек
ElementCount : 836
Размер потока : 26,7 Кбайт (0%)
Заголовок : английские
Язык : English
Default : Нет
Forced : Нет

Меню
00:00:00.000 : :Chapter 01
00:01:39.099 : :Chapter 02
00:09:32.655 : :Chapter 03
00:17:44.855 : :Chapter 04
00:25:59.766 : :Chapter 05
00:35:45.434 : :Chapter 06
00:46:32.581 : :Chapter 07
00:55:57.562 : :Chapter 08
01:02:42.175 : :Chapter 09
01:10:49.161 : :Chapter 10
01:17:05.621 : :Chapter 11
01:26:01.489 : :Chapter 12
01:28:51.451 : :Chapter 13
pb.wtf



Скачать Отчим через торрент https://c.radikal.ru/c22/1712/18/886da50723e8.jpg Скачать фильм Отчим через торрент бесплантно в хорошем качестве О фильме: Джерри Блейк воплощает в себе все мечты матерей-одиночек. Он красив, умён, добр и безумно любит детей. Каждая женщина хочет ... 10 10 4
Info! Золотая раздача, скачанное не засчитывается.
Торрент: Зарегистрирован [2017-12-26 07:52] · скачан: 9 раз
Статус: √ проверено
Размер: 12.24 GB
Как cкачать? Как скачать Отчим через торрент | qTorrent

% Раздел Тема Автор DL S | L
Фильмы [HD 720p, 1080p] (Хороший звук DUB, MVO) [ 4.29 GB ] Отчим / The Stepfather [1987 BDRip 720p by msltel] MVO 2 x DVO AVO msltel Скачать
1 | 0

28-11-2019 20:33  

Отключить всю рекламу на сайте

    Дорогой пользователь! Огромная просьба, поблагодарите релизера, оцените раздачу и оставьте свои комментарий, если Вы скачали Отчим через торрент бесплатно! Внесите свою лепту в развитие PiratBit!
    Комментировать посты могут только пользователи прошедшие не сложную регистрацию
    Показать сообщения:    

    Отчим через торрент
    Скачать бесплатно Отчим
    Отчим скачать торрент
    Отчим смотреть онлайн
    Cкачать фильм Отчим бесплатно
    Отчим скачать торрент в хорошем качестве
    Отчим смотреть онлайн бесплатно в хорошем качестве


    Вы не можете начинать темы
    Вы не можете отвечать на сообщения
    Вы не можете редактировать свои сообщения
    Вы не можете удалять свои сообщения
    Вы не можете голосовать в опросах
    Вы не можете прикреплять файлы к сообщениям
    Вы можете скачивать файлы