Достать ножи: Стеклянная луковица

MVO

Добыча

Дубляж

Уэнсдэй

1 сезон

Тор

Дубляж

13 клиническая

1 сезон

Жестокая ночь

MVO

Одни из нас

1 сезон

Deluxe

pack

Рекомендуем

30

Пиратка

ВАЖНО

ВАЖНО

Ghostwire

Пиратка

jed

RePack

nioh2

RePack

RDR2

RePack

NEED FOR SPEED™ PAYBACK

RePack

скачать торрент

Кинопоиск HD

Острые козырьки 6 сезон

6 сезон

FAR CRY 6

RePack

скачать торрент

Лицензия

скачать торрент

MVO

1

1 сезон

скачать торрент

1 сезон

скачать торрент

Лицензия

  

Обнаженная со скрипкой (Валентин Плучек, Виктор Рыжков) [1959, СССР, комедия, экранизация, фильм-спектакль, DVDRip от AVP Studio]

Обнаженная со скрипкой через торрент pb.wtf

Размер: 1.46 GB | Добавлен: 5 лет 1 мес. назад | Торрент скачан:16 раз
Смотреть онлайн | Скачать | Поддержите нас   

26-12-2017 09:37 Обнаженная со скрипкой Скачать торрент  

Обнаженная со скрипкой
Страна: СССР
Производство: Главная редакция литературно-драматических программ Гостелерадио СССР

Жанр: комедия, экранизация, фильм-спектакль
Год выпуска: 1959
Продолжительность: 01:48:50

Перевод: Не требуется
Cубтитры: нет
Оригинальная аудиодорожка: русский

Режиссер: Валентин Плучек, Виктор Рыжков

В ролях:
Георгий Менглет, Александр Денисов (II), Ольга Зверева, Нина Архипова, Владимир Ушаков, Галина Степанова, Валентина Токарская, Ольга Аросева, Анатолий Папанов, Георгий Иванов, Евгений Весник, Георгий Доре...
Об актёрах подробней

Описание:
Телеверсия спектакля Московского Театра сатиры. По одноименной комедии английского писателя Н. Кауарда.
Англия. 1950-е годы. Умер знаменитый художник Поль Сородэн. Его слуга Себастьян, которому Поль доверял, раскрывает перед родными и близкими умершего тайну: все картины Сородэна были написаны его любовницами и четырнадцатилетним сыном Себастьяна. По словам слуги, это был крестовый поход художника против лжи в искусстве.

Источник: DVD9 R5
Качество видео: DVDRip
Формат видео: AVI

Видео: 688х512 (4:3), 25 fps, XviD ~ 1719 kbps avg, 0.195 bit/pixel
Аудио: 48 kHz, Dolby Digital AC3 2.0, 192 kbps

Раздача от:
Общее
Полное имя : Obnazhennaya.so.skripkoy.1959.DVDRip_[New-team]_by_AVP_Studio.avi
Формат : AVI
Формат/Информация : Audio Video Interleave
Размер файла : 1,46 Гбайт
Продолжительность : 1 ч. 48 м.
Общий поток : 1921 Кбит/сек
Программа кодирования : VirtualDubMod 1.5.10.3 | www.virtualdub-fr.org || (build 2550/release)
Библиотека кодирования : VirtualDubMod build 2550/release

Видео
Идентификатор : 0
Формат : MPEG-4 Visual
Профиль формата : Advanced [email protected]
Настройки формата : BVOP1 / Custom Matrix
Параметр BVOP формата : 1
Параметр QPel формата : Нет
Параметр GMC формата : Без точки перехода
Параметр матрицы формата : Выборочная
Идентификатор кодека : XVID
Идентификатор кодека/Подсказка : XviD
Продолжительность : 1 ч. 48 м.
Битрейт : 1719 Кбит/сек
Ширина : 688 пикселей
Высота : 512 пикселей
Соотношение сторон : 4:3
Частота кадров : 25,000 кадров/сек
Цветовое пространство : YUV
Субдискретизация насыщенности : 4:2:0
Битовая глубина : 8 бит
Тип развёртки : Прогрессивная
Метод сжатия : С потерями
Бит/(Пиксели*Кадры) : 0.195
Размер потока : 1,31 Гбайт (89%)
Библиотека кодирования : XviD 73

Аудио
Идентификатор : 1
Формат : AC-3
Формат/Информация : Audio Coding 3
Идентификатор кодека : 2000
Продолжительность : 1 ч. 48 м.
Вид битрейта : Постоянный
Битрейт : 192 Кбит/сек
Каналы : 2 канала
Расположение каналов : Front: L R
Частота : 48,0 КГц
Частота кадров : 31,250 кадров/сек (1536 SPF)
Битовая глубина : 16 бит
Метод сжатия : С потерями
Размер потока : 149 Мбайт (10%)
Выравнивание : Разделение по промежуткам
Продолжительность промежутка : 40 мс. (1,00 видеокадр)
Время предзагрузки промежутка : 500 мс



Скачать Обнаженная со скрипкой через торрент http://i100.fastpic.ru/big/2017/1226/e7/17ea80d1bcf09753605c94075b1734e7.png Скачать, смотреть онлайн Обнаженная со скрипкой бесплантно в хорошем качестве Описание:Теле спектакля Московского Театра сатиры. По одноименной комедии английского писателя Н. Кауарда.Англия. 1950-е годы. Умер ... 10 10 1
Info! Золотая раздача, скачанное не засчитывается.
Торрент: Зарегистрирован [2017-12-26 09:37] · скачан: 16 раз
Статус: √ проверено
Размер: 1.46 GB
Как cкачать? Как скачать Обнаженная со скрипкой через торрент | UTorrent

% Раздел Тема Автор DL S | L
Кино СССР [ 1.46 GB ] Обнаженная со скрипкой | | DVDRip-AVC от AVP Studio AVP Studio Скачать
1 | 0
Кино СССР [ 745 MB ] Обнаженная со скрипкой | | DVDRip от AVP Studio AVP Studio Скачать
1 | 0

28-11-2019 20:33  


Отключить вcю реклaмy на сайте, в т.ч. и в плеере онлайн просмотра!

    Дорогой пользователь! Огромная просьба, поблагодарите релизера, оцените раздачу и оставьте свои комментарий, если Вы скачали Обнаженная со скрипкой через торрент бесплатно!!
    Комментировать посты могут только пользователи прошедшие не сложную регистрацию
    Показать сообщения:    


    Обнаженная со скрипкой через торрент
    Скачать бесплатно Обнаженная со скрипкой
    Обнаженная со скрипкой скачать торрент
    Обнаженная со скрипкой смотреть онлайн
    Cкачать фильм Обнаженная со скрипкой бесплатно
    Обнаженная со скрипкой скачать торрент в хорошем качестве
    Обнаженная со скрипкой смотреть онлайн бесплатно в хорошем качестве
    Вы не можете начинать темы
    Вы не можете отвечать на сообщения
    Вы не можете редактировать свои сообщения
    Вы не можете удалять свои сообщения
    Вы не можете голосовать в опросах
    Вы не можете прикреплять файлы к сообщениям
    Вы можете скачивать файлы
    Обнаженная со скрипкой [1959, СССР, комедия, экранизация, фильм-спектакль, DVDRip от AVP Studio] смотреть онлайн, скачать торрент picoco.icu