Ссылка на приватное зеркало нашего сайта всего за 1$. Внимание количество ограничено!!!

2 сезон

iTunes

1 сезон

1

iTunes

iTunes

iTunes

1 сезон

RePack

30

ИГРА 18+

pack

ВАЖНО

!!Акция!!

Alien_RageХит недели

RePack

MK11
pack

Забери бонус

RePack

jed

!!Акция!!

Alien_Rage

RePack

fifa19

RePack

Assassins Creed: Odyssey

RePack

NEED FOR SPEED™ PAYBACK

4 сезон

9 сезон

Бесстыжие 9 сезон

Все сериалы

все сериалы на PB.wtf

RePack

FAR CRY 5
  

Ангел тьмы / Dark angel (Крэйг Р. Бэксли) [1990, ужасы, фантастика, боевик, триллер, криминал, BDRip 720p by msltel] 2 x MVO, 2 x DVO, 3 x AVO, VO pb.wtf

Ангел тьмы через торрент pb.wtf

Размер: 5.56 GB | Добавлен: 2 года 9 мес. назад | Торрент скачан:97 раз
Скачать  

26-12-2017 09:45 Ангел тьмы Скачать торрент  

Название: Ангел тьмы
Оригинальное название: Dark Angel
Год выпуска: 1990
Страна: США
Жанр: ужасы, фантастика, боевик, триллер, криминал
Продолжительность: 01:31:57
Перевод: профессиональный многоголосый, профессиональный двухголосый, авторский, любительский одноголосый

Режиссер: Крэйг Р. Бэксли
В ролях: Дольф Лундгрен, Брайан Бенбен, Бетси Брэнтли, Маттиас Хьюз, Джей Билас, Джим Хейни, Дэвид Экройд, Шерман Ховард, Сэм Андерсон, Марк Ловенталь, Майкл Дж. Поллард, Джесси Винт, Алекс Моррис, Кевин Пейдж, Роберт Прентисс, Ник Хэглер, Тони Брубэйкер, Мими Кокрэн, Мэттью Пози, Александр Джонстон, Джек Уиллис, Аль Леонг, Брэндон Смит, Уэйн Дихарт, Кевин Ховард, Вуди Уотсон, Луис Лемус, Крис Кинкейд, Себастьян Уайт, Дэвид Пойнтер, Гари Бэксли, Кристин Бэксли, Сюзанн Савой, Ховард Френч, Уилли Майнор, Джэк Вербойс, Стэйси Кортез, Нино Кандидо

О фильме: Во время операции по задержанию наркоторговцев полицейский Джек Кейн теряет напарника и начинает расследование серии странных смертей — жертвы гибнут от невероятно большой дозы героина, хотя и не являются наркоманами. Вместе с приставленным к нему агентом ФБР Джек приходит к удивительному выводу: убийца никто иной, как инопланетный преступник, буквально выкачивающий мозг у своих жертв. Но может ли человек победить пришельца?...



Качество: BDRip 720p
Формат: MKV
Видео: MPEG-4 AVC, 6412 Кбит/с, 1280x720, 23.976 кадр/с
Аудио 1: русский, AC3, 192 kbps, 2 ch [профессиональный многоголосый, ]Ren-TV
Аудио 2: русский, AC3, 192 kbps, 2 ch [профессиональный многоголосый, Нева-1]
Аудио 3: русский, AC3, 192 kbps, 2 ch [профессиональный двухголосый, HTB+]
Аудио 4: русский, AC3, 192 kbps, 2 ch [профессиональный двухголосый, Видеофильм]
Аудио 5: русский, AC3, 192 kbps, 2 ch [авторский, Сергей Визгунов]
Аудио 6: русский, AC3, 448 kbps, 6 ch [авторский, Андрей Гаврилов]
Аудио 7: русский, AC3, 192 kbps, 2 ch [авторский, Василий Горчаков]
Аудио 8: русский, AC3, 192 kbps, 2 ch [любительский одноголосый]
Аудио 9: английский, AC3, 448 kbps, 6 ch, 48 kHz [оригинал]
Субтитры 1: русские (с ненормативной лексикой)
Субтитры 2: английские
Неименованные главы/чаптеры.
Общее
Уникальный идентификатор : 236795606690162715453815413482069290602 (0xB2252CCA55DA9CF6800B6FA48EA1EE6A)
Полное имя : D:\Video\Ангел тьмы.1990.BDRip.720p by msltel.mkv
Формат : Matroska
Версия формата : Version 4 / Version 2
Размер файла : 5,56 Гбайт
Продолжительность : 1 ч. 31 м.
Общий поток : 8656 Кбит/сек
Название фильма : Rip by msltel
Дата кодирования : UTC 2017-12-26 06:56:41
Программа кодирования : mkvmerge v8.2.0 ('World of Adventure') 64bit
Библиотека кодирования : libebml v1.3.1 + libmatroska v1.4.2

Видео
Идентификатор : 1
Формат : AVC
Формат/Информация : Advanced Video Codec
Профиль формата : High@L4.1
Настройки формата : CABAC / 9 Ref Frames
Параметр CABAC формата : Да
Параметр RefFrames формата : 9 кадров
Идентификатор кодека : V_MPEG4/ISO/AVC
Продолжительность : 1 ч. 31 м.
Битрейт : 6412 Кбит/сек
Ширина : 1280 пикселей
Высота : 720 пикселей
Соотношение сторон : 16:9
Режим частоты кадров : Постоянный
Частота кадров : 23,976 (24000/1001) кадра/сек
Цветовое пространство : YUV
Субдискретизация насыщенности : 4:2:0
Битовая глубина : 8 бит
Тип развёртки : Прогрессивная
Бит/(Пиксели*Кадры) : 0.290
Размер потока : 4,12 Гбайт (74%)
Библиотека кодирования : x264 core 146 r2538 121396c
Настройки программы : cabac=1 / ref=9 / deblock=1:-3:-2 / analyse=0x3:0x113 / me=umh / subme=11 / psy=1 / psy_rd=1.00:0.15 / mixed_ref=1 / me_range=32 / chroma_me=1 / trellis=2 / 8x8dct=1 / cqm=0 / deadzone=21,11 / fast_pskip=0 / chroma_qp_offset=-3 / threads=6 / lookahead_threads=1 / sliced_threads=0 / nr=0 / decimate=1 / interlaced=0 / bluray_compat=0 / constrained_intra=0 / bframes=11 / b_pyramid=2 / b_adapt=2 / b_bias=0 / direct=1 / weightb=1 / open_gop=0 / weightp=2 / keyint=230 / keyint_min=23 / scenecut=40 / intra_refresh=0 / rc_lookahead=40 / rc=crf / mbtree=0 / crf=20.0 / qcomp=0.60 / qpmin=0 / qpmax=69 / qpstep=4 / vbv_maxrate=62500 / vbv_bufsize=78125 / crf_max=0.0 / nal_hrd=none / filler=0 / ip_ratio=1.40 / pb_ratio=1.30 / aq=1:1.00
Язык : English
Default : Да
Forced : Нет

Аудио #1
Идентификатор : 2
Формат : AC-3
Формат/Информация : Audio Coding 3
Идентификатор кодека : A_AC3
Продолжительность : 1 ч. 31 м.
Вид битрейта : Постоянный
Битрейт : 192 Кбит/сек
Каналы : 2 канала
Расположение каналов : Front: L R
Частота : 48,0 КГц
Частота кадров : 31,250 кадров/сек (1536 SPF)
Битовая глубина : 16 бит
Метод сжатия : С потерями
Размер потока : 126 Мбайт (2%)
Заголовок : MVO.Ren-TV
Язык : Russian
ServiceKind/String : Complete Main
Default : Да
Forced : Нет

Аудио #2
Идентификатор : 3
Формат : AC-3
Формат/Информация : Audio Coding 3
Идентификатор кодека : A_AC3
Продолжительность : 1 ч. 31 м.
Вид битрейта : Постоянный
Битрейт : 192 Кбит/сек
Каналы : 2 канала
Расположение каналов : Front: L R
Частота : 48,0 КГц
Частота кадров : 31,250 кадров/сек (1536 SPF)
Битовая глубина : 16 бит
Метод сжатия : С потерями
Размер потока : 126 Мбайт (2%)
Заголовок : MVO.Нева-1
Язык : Russian
ServiceKind/String : Complete Main
Default : Нет
Forced : Нет

Аудио #3
Идентификатор : 4
Формат : AC-3
Формат/Информация : Audio Coding 3
Идентификатор кодека : A_AC3
Продолжительность : 1 ч. 31 м.
Вид битрейта : Постоянный
Битрейт : 192 Кбит/сек
Каналы : 2 канала
Расположение каналов : Front: L R
Частота : 48,0 КГц
Частота кадров : 31,250 кадров/сек (1536 SPF)
Битовая глубина : 16 бит
Метод сжатия : С потерями
Размер потока : 126 Мбайт (2%)
Заголовок : DVO.HTB+
Язык : Russian
ServiceKind/String : Complete Main
Default : Нет
Forced : Нет

Аудио #4
Идентификатор : 5
Формат : AC-3
Формат/Информация : Audio Coding 3
Идентификатор кодека : A_AC3
Продолжительность : 1 ч. 31 м.
Вид битрейта : Постоянный
Битрейт : 192 Кбит/сек
Каналы : 2 канала
Расположение каналов : Front: L R
Частота : 48,0 КГц
Частота кадров : 31,250 кадров/сек (1536 SPF)
Битовая глубина : 16 бит
Метод сжатия : С потерями
Размер потока : 126 Мбайт (2%)
Заголовок : DVO.Видеофильм
Язык : Russian
ServiceKind/String : Complete Main
Default : Нет
Forced : Нет

Аудио #5
Идентификатор : 6
Формат : AC-3
Формат/Информация : Audio Coding 3
Идентификатор кодека : A_AC3
Продолжительность : 1 ч. 31 м.
Вид битрейта : Постоянный
Битрейт : 192 Кбит/сек
Каналы : 2 канала
Расположение каналов : Front: L R
Частота : 48,0 КГц
Частота кадров : 31,250 кадров/сек (1536 SPF)
Битовая глубина : 16 бит
Метод сжатия : С потерями
Размер потока : 126 Мбайт (2%)
Заголовок : Сергей Визгунов
Язык : Russian
ServiceKind/String : Complete Main
Default : Нет
Forced : Нет

Аудио #6
Идентификатор : 7
Формат : AC-3
Формат/Информация : Audio Coding 3
Идентификатор кодека : A_AC3
Продолжительность : 1 ч. 31 м.
Вид битрейта : Постоянный
Битрейт : 448 Кбит/сек
Каналы : 6 каналов
Расположение каналов : Front: L C R, Side: L R, LFE
Частота : 48,0 КГц
Частота кадров : 31,250 кадров/сек (1536 SPF)
Битовая глубина : 16 бит
Метод сжатия : С потерями
Размер потока : 295 Мбайт (5%)
Заголовок : Андрей Гаврилов
Язык : Russian
ServiceKind/String : Complete Main
Default : Нет
Forced : Нет

Аудио #7
Идентификатор : 8
Формат : AC-3
Формат/Информация : Audio Coding 3
Идентификатор кодека : A_AC3
Продолжительность : 1 ч. 31 м.
Вид битрейта : Постоянный
Битрейт : 192 Кбит/сек
Каналы : 2 канала
Расположение каналов : Front: L R
Частота : 48,0 КГц
Частота кадров : 31,250 кадров/сек (1536 SPF)
Битовая глубина : 16 бит
Метод сжатия : С потерями
Размер потока : 126 Мбайт (2%)
Заголовок : Василий Горчаков
Язык : Russian
ServiceKind/String : Complete Main
Default : Нет
Forced : Нет

Аудио #8
Идентификатор : 9
Формат : AC-3
Формат/Информация : Audio Coding 3
Идентификатор кодека : A_AC3
Продолжительность : 1 ч. 31 м.
Вид битрейта : Постоянный
Битрейт : 192 Кбит/сек
Каналы : 2 канала
Расположение каналов : Front: L R
Частота : 48,0 КГц
Частота кадров : 31,250 кадров/сек (1536 SPF)
Битовая глубина : 16 бит
Метод сжатия : С потерями
Размер потока : 126 Мбайт (2%)
Заголовок : любительский одноголосый
Язык : Russian
ServiceKind/String : Complete Main
Default : Нет
Forced : Нет

Аудио #9
Идентификатор : 10
Формат : AC-3
Формат/Информация : Audio Coding 3
Идентификатор кодека : A_AC3
Продолжительность : 1 ч. 31 м.
Вид битрейта : Постоянный
Битрейт : 448 Кбит/сек
Каналы : 6 каналов
Расположение каналов : Front: L C R, Side: L R, LFE
Частота : 48,0 КГц
Частота кадров : 31,250 кадров/сек (1536 SPF)
Битовая глубина : 16 бит
Метод сжатия : С потерями
Размер потока : 295 Мбайт (5%)
Заголовок : original
Язык : English
ServiceKind/String : Complete Main
Default : Нет
Forced : Нет

Текст #1
Идентификатор : 11
Формат : UTF-8
Идентификатор кодека : S_TEXT/UTF8
Идентификатор кодека/Информация : UTF-8 Plain Text
Продолжительность : 1 ч. 27 м.
Битрейт : 71 бит/сек
ElementCount : 884
Размер потока : 45,6 Кбайт (0%)
Заголовок : русские, с ненормативной лексикой
Язык : Russian
Default : Нет
Forced : Нет

Текст #2
Идентификатор : 12
Формат : UTF-8
Идентификатор кодека : S_TEXT/UTF8
Идентификатор кодека/Информация : UTF-8 Plain Text
Продолжительность : 1 ч. 27 м.
Битрейт : 62 бит/сек
ElementCount : 1205
Размер потока : 40,3 Кбайт (0%)
Заголовок : английские
Язык : English
Default : Нет
Forced : Нет

Меню
00:00:00.000 : :Chapter 01
00:07:55.223 : :Chapter 02
00:18:17.762 : :Chapter 03
00:24:57.161 : :Chapter 04
00:31:18.750 : :Chapter 05
00:37:22.072 : :Chapter 06
00:45:20.884 : :Chapter 07
00:51:28.668 : :Chapter 08
00:57:35.659 : :Chapter 09
01:03:44.320 : :Chapter 10
01:09:32.126 : :Chapter 11
01:18:56.939 : :Chapter 12
pb.wtf



Скачать Ангел тьмы через торрент https://b.radikal.ru/b24/1712/ea/9c21ef5c7628.jpg Скачать фильм Ангел тьмы через торрент бесплантно в хорошем качестве О фильме: Во время операции по задержанию наркоторговцев полицейский Джек Кейн теряет напарника и начинает расследование серии странных ... 10 10 8
Info! Золотая раздача, скачанное не засчитывается.
Торрент: Зарегистрирован [2017-12-26 09:45] · скачан: 97 раз
Статус: √ проверено
Размер: 5.56 GB
Как cкачать? Как скачать Ангел тьмы через торрент | qTorrent

% Раздел Тема Автор DL S | L
Фильмы [HD 720p, 1080p] (Хороший звук DUB, MVO) [ 15.15 GB ] Ангел тьмы / Dark angel [1990 BDRip 1080p by msltel] 2 x MVO 2 x DVO 3 x AVO VO msltel Скачать
1 | 0

28-11-2019 20:33  

Отключить всю рекламу на сайте

26-12-2017 15:31 Ангел тьмы Скачать торрент  

оооо... ноостальгический востоооорг...КАЧАЮ!!!!pb.wtf



27-12-2017 03:56 Ангел тьмы Скачать торрент  

ААААААААААААААААААА!!!!!!!!!!!!!!!!!!!!!!!!!!!!!!!
нужно как-то расслабляться.

pb.wtf



27-12-2017 13:47 Ангел тьмы Скачать торрент  

смотрел в видеосалоне почти тридцать лет назад.-помню с супругой были в восторге от просмотра.пересмотрим.спасибо.pb.wtf



    Дорогой пользователь! Огромная просьба, поблагодарите релизера, оцените раздачу и оставьте свои комментарий, если Вы скачали Ангел тьмы через торрент бесплатно! Внесите свою лепту в развитие PiratBit!
    Комментировать посты могут только пользователи прошедшие не сложную регистрацию
    Показать сообщения:    

    Ангел тьмы через торрент
    Скачать бесплатно Ангел тьмы
    Ангел тьмы скачать торрент
    Ангел тьмы смотреть онлайн
    Cкачать фильм Ангел тьмы бесплатно
    Ангел тьмы скачать торрент в хорошем качестве
    Ангел тьмы смотреть онлайн бесплатно в хорошем качестве


    Вы не можете начинать темы
    Вы не можете отвечать на сообщения
    Вы не можете редактировать свои сообщения
    Вы не можете удалять свои сообщения
    Вы не можете голосовать в опросах
    Вы не можете прикреплять файлы к сообщениям
    Вы можете скачивать файлы