2 сезон

iTunes

MVO

1

2 сезон

iTunes

iTunes

1 сезон

RePack

30

Новинка

ВАЖНО

ИГРА 18+

pack

RePack

MK11
pack

Легкие деньги

RePack

jed

RePack

fifa19

RePack

RDR2

RePack

NEED FOR SPEED™ PAYBACK

4 сезон

9 сезон

Бесстыжие 9 сезон

Все сериалы

все сериалы на PB.wtf

RePack

FAR CRY 5

Anonymous, доброй ночи, мы не успеваем собрать деньги на оплату серверов за декабрь и январь, помогите нам пожалуйста в это трудное время. В качестве благодарности мы отключим Вам всю рекламу на сайте (укажите свой ник в строку Ваше имя)!

×
  
Magnet ссылка

Битва полов / Battle of the Sexes (Джонатан Дэйтон / Jonathan Dayton, Валери Фэрис / Valerie Faris) [2017, драма, комедия, биография, BDRip-AVC] MVO [Лицензия] pb.wtf

Битва полов через торрент pb.wtf

Раздают: 1 [ 0 KB/s ]
Размер: 3.1 GB | Добавлен: 3 года назад | Торрент скачан:681 раз
Скачать  

26-12-2017 10:10 Битва полов Скачать торрент  

Битва полов
Battle of the Sexes

«Он бросил вызов, она изменила историю»


Страна: Великобритания, США
Жанр: драма, комедия, биография, спорт

Год выпуска: 2017
Продолжительность: 02:01:39

Перевод: Профессиональный (многоголосый, закадровый) [Blu-ray CEE]
Субтитры: русские (полные), английские (полные, SDH, SDH цветные)
Оригинальная аудиодорожка: английский

Режиссер: Джонатан Дэйтон / Jonathan Dayton, Валери Фэрис / Valerie Faris

В ролях: Эмма Стоун, Стив Карелл, Андреа Райзборо, Натали Моралес, Сара Силверман, Билл Пуллман, Алан Камминг, Элизабет Шу, Эрик Кристиан Олсен, Фред Армисен, Марта МакАйзек, Лорен Кляйн

Описание:
История соперничества между 55-летним чемпионом Уимблдона Бобби Риггсом и 29-летней теннисисткой Билли Джин Кинг. Легендарный матч, прошедший в 1973 году, собрал возле экранов более 50 миллионов американцев и доказал, что профессиональные спортсменки способны на равных состязаться с коллегами-мужчинами.



Релиз:

Автор рипа: stalkerok | Моя группа

Сэмпл

Качество видео: BDRip-AVC [The.Battle.of.the.Sexes.2017.BDREMUX.1080p.ExKinoRay]
Формат видео: MKV
Видео кодек: AVC
Аудио кодек: AC3
Видео: 2752 Кбит/сек, 1152*482 (2,40:1), в 23,976 (24000/1001) кадра/сек, AVC
Аудио #1: русский, 448 Кбит/сек, 48 КГц, 5.1, AC3
Аудио #2: английский, 448 Кбит/сек, 48 КГц, 5.1, AC3
Навигация по главам: есть

---[Information] [26.12.2017 1:44:17] x264 [info]: frame I:1148 Avg QP:16.28 size: 70308
---[Information] [26.12.2017 1:44:17] x264 [info]: frame P:37017 Avg QP:19.18 size: 26727
---[Information] [26.12.2017 1:44:17] x264 [info]: frame B:136844 Avg QP:19.91 size: 10531

Общее
Уникальный идентификатор : 237170530924470106591070076962726727719 (0xB26D61FB781DF9CEBDF910D56A5FD027)
Полное имя : M:\$new\Battle of the Sexes (2017)\Battle.of.the.Sexes.2017.BDRip-AVC.RUS.ENG.stalkerok.new-team.mkv
Формат : Matroska
Версия формата : Version 4 / Version 2
Размер файла : 3,10 Гбайт
Продолжительность : 2 ч. 1 м.
Общий поток : 3651 Кбит/сек
Название фильма : Battle of the Sexes (2017) (Rip by stalkerok)
Дата кодирования : UTC 2017-12-26 09:18:40
Программа кодирования : mkvmerge v8.6.1 ('Flying') 64bit
Библиотека кодирования : libebml v1.3.3 + libmatroska v1.4.4

Видео
Идентификатор : 3
Формат : AVC
Формат/Информация : Advanced Video Codec
Профиль формата : High@L4.1
Параметр CABAC формата : Да
Параметр ReFrames формата : 13 кадров
Идентификатор кодека : V_MPEG4/ISO/AVC
Продолжительность : 2 ч. 1 м.
Битрейт : 2752 Кбит/сек
Ширина : 1152 пикселя
Высота : 482 пикселя
Соотношение сторон : 2,40:1
Режим частоты кадров : Постоянный
Частота кадров : 23,976 (24000/1001) кадра/сек
Цветовое пространство : YUV
Субдискретизация насыщенности : 4:2:0
Битовая глубина : 8 бит
Тип развёртки : Прогрессивная
Бит/(Пиксели*Кадры) : 0.207
Размер потока : 2,34 Гбайт (75%)
Заголовок : Battle of the Sexes (2017) (Rip by stalkerok)
Библиотека кодирования : x264 core 152 r2851kMod ba24899
Настройки программы : cabac=1 / ref=13 / deblock=1:-3:-2 / analyse=0x3:0x133 / me=umh / subme=11 / psy=1 / fade_compensate=0.00 / psy_rd=1.00:0.00 / mixed_ref=1 / me_range=32 / chroma_me=1 / trellis=2 / 8x8dct=1 / cqm=0 / deadzone=21,11 / fast_pskip=0 / chroma_qp_offset=-2 / threads=12 / lookahead_threads=3 / sliced_threads=0 / nr=0 / decimate=1 / interlaced=0 / bluray_compat=0 / constrained_intra=0 / bframes=13 / b_pyramid=2 / b_adapt=2 / b_bias=0 / direct=3 / weightb=1 / open_gop=0 / weightp=2 / keyint=240 / keyint_min=23 / scenecut=40 / intra_refresh=0 / rc_lookahead=60 / rc=crf / mbtree=0 / crf=18.6000 / qcomp=0.65 / qpmin=0 / qpmax=69 / qpstep=4 / vbv_maxrate=50000 / vbv_bufsize=62500 / crf_max=0.0 / nal_hrd=none / filler=0 / ip_ratio=1.40 / pb_ratio=1.30 / aq=3:0.85 / zones=165958,175009,q=32
Default : Да
Forced : Нет

Аудио #1
Идентификатор : 2
Формат : AC-3
Формат/Информация : Audio Coding 3
Расширение режима : CM (complete main)
Параметр Endianness формата : Big
Идентификатор кодека : A_AC3
Продолжительность : 2 ч. 1 м.
Вид битрейта : Постоянный
Битрейт : 448 Кбит/сек
Каналы : 6 каналов
Расположение каналов : Front: L C R, Side: L R, LFE
Частота : 48,0 КГц
Частота кадров : 31,250 кадров/сек (1536 spf)
Метод сжатия : С потерями
Размер потока : 390 Мбайт (12%)
Язык : Russian
Default : Да
Forced : Нет

Аудио #2
Идентификатор : 7
Формат : AC-3
Формат/Информация : Audio Coding 3
Расширение режима : CM (complete main)
Параметр Endianness формата : Big
Идентификатор кодека : A_AC3
Продолжительность : 2 ч. 1 м.
Вид битрейта : Постоянный
Битрейт : 448 Кбит/сек
Каналы : 6 каналов
Расположение каналов : Front: L C R, Side: L R, LFE
Частота : 48,0 КГц
Частота кадров : 31,250 кадров/сек (1536 spf)
Метод сжатия : С потерями
Размер потока : 390 Мбайт (12%)
Язык : English
Default : Нет
Forced : Нет

Текст #1
Идентификатор : 1
Формат : UTF-8
Идентификатор кодека : S_TEXT/UTF8
Идентификатор кодека/Информация : UTF-8 Plain Text
Продолжительность : 2 ч. 0 м.
Битрейт : 106 бит/сек
Count of elements : 1638
Размер потока : 94,5 Кбайт (0%)
Язык : Russian
Default : Нет
Forced : Нет

Текст #2
Идентификатор : 4
Формат : UTF-8
Идентификатор кодека : S_TEXT/UTF8
Идентификатор кодека/Информация : UTF-8 Plain Text
Продолжительность : 1 ч. 58 м.
Битрейт : 71 бит/сек
Count of elements : 2148
Размер потока : 62,1 Кбайт (0%)
Язык : English
Default : Нет
Forced : Нет

Текст #3
Идентификатор : 5
Формат : UTF-8
Идентификатор кодека : S_TEXT/UTF8
Идентификатор кодека/Информация : UTF-8 Plain Text
Продолжительность : 1 ч. 58 м.
Битрейт : 76 бит/сек
Count of elements : 2275
Размер потока : 66,7 Кбайт (0%)
Заголовок : SDH
Язык : English
Default : Нет
Forced : Нет

Текст #4
Идентификатор : 6
Формат : UTF-8
Идентификатор кодека : S_TEXT/UTF8
Идентификатор кодека/Информация : UTF-8 Plain Text
Продолжительность : 1 ч. 58 м.
Битрейт : 111 бит/сек
Count of elements : 2275
Размер потока : 96,6 Кбайт (0%)
Заголовок : SDH Colored
Язык : English
Default : Нет
Forced : Нет

Меню
00:00:00.000 : en:00:00:00.000
00:03:34.423 : en:00:03:34.423
00:07:51.304 : en:00:07:51.304
00:10:57.532 : en:00:10:57.532
00:15:13.621 : en:00:15:13.621
00:19:09.523 : en:00:19:09.523
00:22:54.915 : en:00:22:54.915
00:27:57.676 : en:00:27:57.676
00:34:32.946 : en:00:34:32.946
00:38:57.835 : en:00:38:57.835
00:44:57.278 : en:00:44:57.278
00:49:17.079 : en:00:49:17.079
00:54:23.927 : en:00:54:23.927
00:57:54.763 : en:00:57:54.763
01:06:28.276 : en:01:06:28.276
01:15:03.499 : en:01:15:03.499
01:19:37.940 : en:01:19:37.940
01:23:21.914 : en:01:23:21.914
01:30:49.819 : en:01:30:49.819
01:35:11.623 : en:01:35:11.623
01:38:59.142 : en:01:38:59.142
01:43:04.053 : en:01:43:04.053
01:48:47.062 : en:01:48:47.062
01:55:22.749 : en:01:55:22.749
скриншот   скриншот   скриншот   скриншот   скриншот   скриншот  
pb.wtf



Скачать Битва полов через торрент http://i6.imageban.ru/out/2017/09/18/2ff75c0c358795c5946784cc1680714d.png Скачать фильм Битва полов через торрент бесплантно в хорошем качестве Описание:История соперничества между 55-летним чемпионом Уимблдона Бобби Риггсом и 29-летней теннисисткой Билли Джин Кинг. Легендарный ... 10 10 7
Info! Золотая раздача, скачанное не засчитывается.
Торрент: Зарегистрирован [2017-12-26 10:10] · скачан: 681 раз
Статус: √ проверено
Размер: 3.1 GB
Как cкачать? Как скачать Битва полов через торрент | UTorrent

% Раздел Тема Автор DL S | L
Фильмы (HD 720p, 1080p) (48-60 fps) [ 14.94 GB ] Битва полов / Battle of the Sexes [2017 биография BDRip 1080p / 60 FPS Оригинал] Tiberiumsun69 Скачать
1 | 1
Фильмы 2017 [DVDrip, WEB-DLRip, HDrip] (DUB, MVO) [ 1.37 GB ] Битва полов / Battle of the Sexes [2017 биография HDRip] [MVO] [] killermax2013 Скачать
1 | 0
Фильмы 2017 [DVDrip, WEB-DLRip, HDrip] (DUB, MVO) [ 1.46 GB ] Битва полов / Battle of the Sexes [2017 биография BDRip] MVO [] Twi7ter Скачать
1 | 0
Фильмы с украинским озвучиванием [ 2.18 GB ] Битва полов / Battle of the Sexes [2017 биография BDRip-AVC] [Ukr DUB] [] killermax2013 Скачать
1 | 0
Фильмы (Blu-ray, BD-Remux, HDDVD) [ 31.52 GB ] Битва полов / Battle of the Sexes [2017 биография BD Remux 1080p] MVO [] bober100 Скачать
1 | 0
Фильмы 2017 [DVDrip, WEB-DLRip, HDrip] (DUB, MVO) [ 1.49 GB ] Битва полов / Battle of the Sexes [2017 биография BDRip-AVC] MVO [] sokol_ok Скачать
2 | 0
Фильмы 2017 [DVDrip, WEB-DLRip, HDrip] (DUB, MVO) [ 2.05 GB ] Битва полов / Battle of the Sexes [2017 биография BDRip] [MVO] [] killermax2013 Скачать
1 | 0

28-11-2019 20:33  

Отключить всю рекламу на сайте

28-12-2017 17:39 Битва полов Скачать торрент  

это скорее битва возрастовpb.wtf



15-01-2018 19:03 Битва полов Скачать торрент  

чет шлак. перемотками посмотрел, не очень если честноpb.wtf



15-02-2018 06:05 Битва полов Скачать торрент  

Timoshka писал(а):

это скорее битва возрастов

Во во. 30 женщина и мужик предпенсионного возраста.pb.wtf



    Дорогой пользователь! Огромная просьба, поблагодарите релизера, оцените раздачу и оставьте свои комментарий, если Вы скачали Битва полов через торрент бесплатно! Внесите свою лепту в развитие PiratBit!
    Комментировать посты могут только пользователи прошедшие не сложную регистрацию
    Показать сообщения:    

    Битва полов через торрент
    Скачать бесплатно Битва полов
    Битва полов скачать торрент
    Битва полов смотреть онлайн
    Cкачать фильм Битва полов бесплатно
    Битва полов скачать торрент в хорошем качестве
    Битва полов смотреть онлайн бесплатно в хорошем качестве


    Вы не можете начинать темы
    Вы не можете отвечать на сообщения
    Вы не можете редактировать свои сообщения
    Вы не можете удалять свои сообщения
    Вы не можете голосовать в опросах
    Вы не можете прикреплять файлы к сообщениям
    Вы можете скачивать файлы