2 сезон

iTunes

MVO

1

2 сезон

iTunes

iTunes

1 сезон

RePack

30

Ultimate

ВАЖНО

ИГРА 18+

pack

RePack

MK11
pack

Легкие деньги

RePack

jed

RePack

fifa19

RePack

RDR2

RePack

NEED FOR SPEED™ PAYBACK

4 сезон

9 сезон

Бесстыжие 9 сезон

Все сериалы

все сериалы на PB.wtf

RePack

FAR CRY 5

Anonymous, доброй ночи, мы не успеваем собрать деньги на оплату серверов за декабрь и январь, помогите нам пожалуйста в это трудное время. В качестве благодарности мы отключим Вам всю рекламу на сайте (укажите свой ник в строку Ваше имя)!

×
  
Magnet ссылка

Иностранец / The Foreigner (Мартин Кэмпбелл) [2017 г., боевик, триллер, драма, WEB-DLRip] DUB [iTunes] pb.wtf

Иностранец через торрент pb.wtf

Размер: 747 MB | Добавлен: 3 года назад | Торрент скачан:229 раз
Скачать  

26-12-2017 10:29 Иностранец Скачать торрент  

Иностранец / The Foreigner
«Иногда месть - это лучшая справедливость»
Год выпуска: 2017
Страна: Великобритания, Китай, США
Производство: Arthur Sarkissian Productions, ntertainer Production Company. The, Huayi Brothers, Robert Simonds Company, The, SR Media, thefyzz, Wanda Media Co.
Жанр: Боевик, триллер, драма, криминал, детектив

Режиссёр: Мартин Кэмпбелл
В ролях: Джеки Чан, Пирс Броснан, Майкл МакЭлхаттон, Тао Лю, Чарли Мёрфи, Орла Брэйди, Кэти Льюнг, Рэй Фиарон, Руфус Джонс, Марк Тэнди

Перевод: Профессиональный (полное дублирование)[iTunes]
Субтитры: Отсутствуют

Описание: Бывший спецагент, ветеран вьетнамской войны Цюань давно сложил оружие и завел мирную жизнь. Но после того, как в теракте прямо на глазах погибает его дочь-подросток, видя, что власти не спешат разыскивать преступников, Цюань сам начинает поиск убийцы. Он пойдет на все, чтобы совершить праведное возмездие…



Качество: WEB-DLRip
Продолжительность: 01:53:18

Формат: AVI
Видео кодек: XviD
Аудио кодек: MP3
Видео: 656x272 (2.40:1), 24.000 fps, XviD ~ 787 kbps avg, 0.184 bit/pixel
Аудио: MP3, 48 kHz, 6 ch, ~ 128.00 kbps avg

Дата премьеры (мир): 24 сентября 2017
Дата премьеры (РФ): 30 ноября 2017, «Парадиз»
General
Complete name : The.Foreigner.2017.745MB.MegaPeer.avi
Format : AVI
Format/Info : Audio Video Interleave
File size : 747 MiB
Duration : 1 h 53 min
Overall bit rate : 921 kb/s

Video
ID : 0
Format : MPEG-4 Visual
Format profile : Advanced Simple@L5
Format settings, BVOP : 1
Format settings, QPel : No
Format settings, GMC : No warppoints
Format settings, Matrix : Custom
Codec ID : XVID
Codec ID/Hint : XviD
Duration : 1 h 53 min
Bit rate : 787 kb/s
Width : 656 pixels
Height : 272 pixels
Display aspect ratio : 2.40:1
Frame rate : 24.000 FPS
Color space : YUV
Chroma subsampling : 4:2:0
Bit depth : 8 bits
Scan type : Progressive
Compression mode : Lossy
Bits/(Pixel*Frame) : 0.184
Stream size : 638 MiB (85%)
Writing library : XviD 73

Audio
ID : 1
Format : MPEG Audio
Format version : Version 1
Format profile : Layer 3
Codec ID : 55
Codec ID/Hint : MP3
Duration : 1 h 53 min
Bit rate mode : Constant
Bit rate : 128 kb/s
Channel(s) : 2 channels
Sampling rate : 48.0 kHz
Compression mode : Lossy
Stream size : 104 MiB (14%)
Alignment : Aligned on interleaves
Interleave, duration : 167 ms (4.00 video frames)
Interleave, preload duration : 216 ms
Writing library : LAME3.99r
Encoding settings : -m s -V 4 -q 2 -lowpass 17 -b 128
скриншот  скриншот  скриншот  
скриншот  скриншот  
pb.wtf



Скачать Иностранец через торрент http://i102.fastpic.ru/big/2017/1226/16/7a2b793b1b2d691e0bb925f68b023b16.png Скачать фильм Иностранец через торрент бесплантно в хорошем качестве Описание: Бывший спецагент, ветеран вьетнамской войны Цюань давно сложил оружие и завел мирную жизнь. Но после того, как в теракте прямо на ... 9.5 10 4
Торрент: Зарегистрирован [2017-12-26 10:29] · скачан: 229 раз
Статус: √ проверено
Размер: 747 MB
Как cкачать? Как скачать Иностранец через торрент | UTorrent

% Раздел Тема Автор DL S | L
Фильмы [HD 720p, 1080p] (Хороший звук DUB, MVO) [ 8.71 GB ] Иностранец / The Foreigner [2017 BDRip 1080p] [GER Transfer] DUB + AVO - KORSAR kisa1980 Скачать
2 | 0
Фильмы (Blu-ray, BD-Remux, HDDVD) [ 31.57 GB ] Иностранец / The Foreigner [2017 BD Remux 1080p] DUB [] bober100 Скачать
2 | 0
Фильмы 2017 [DVDrip, WEB-DLRip, HDrip] (DUB, MVO) [ 746 MB ] Иностранец / The Foreigner [2017 BDRip-AVC] sokol_ok Скачать
2 | 0
Фильмы 2017 [DVDrip, WEB-DLRip, HDrip] (DUB, MVO) [ 2.9 GB ] Иностранец / The Foreigner [2017 BDRip-AVC] + AVO [Карповский Живов] sokol_ok Скачать
1 | 0
Фильмы 2017 [DVDrip, WEB-DLRip, HDrip] (DUB, MVO) [ 1.34 GB ] Иностранец / The Foreigner [2017 BDRip-AVC] sokol_ok Скачать
2 | 0
Фильмы 2017 [DVDrip, WEB-DLRip, HDrip] (DUB, MVO) [ 1.46 GB ] Иностранец / The Foreigner [2017 BDRip-AVC] DUB [] bober100 Скачать
1 | 0
Фильмы [HD 720p, 1080p] (Хороший звук DUB, MVO) [ 7.24 GB ] Иностранец / The Foreigner [2017 BDRip 720p] DUB [] bober100 Скачать
1 | 0

28-11-2019 20:33  

Отключить всю рекламу на сайте

26-12-2017 13:34 Иностранец Скачать торрент  

Реклама есть ?pb.wtf



26-12-2017 14:13 Иностранец Скачать торрент  

MaxPadonak писал(а):

Реклама есть ?

Это айтюнс, тут не бывает рекламы!pb.wtf



    Дорогой пользователь! Огромная просьба, поблагодарите релизера, оцените раздачу и оставьте свои комментарий, если Вы скачали Иностранец через торрент бесплатно! Внесите свою лепту в развитие PiratBit!
    Комментировать посты могут только пользователи прошедшие не сложную регистрацию
    Показать сообщения:    

    Иностранец через торрент
    Скачать бесплатно Иностранец
    Иностранец скачать торрент
    Иностранец смотреть онлайн
    Cкачать фильм Иностранец бесплатно
    Иностранец скачать торрент в хорошем качестве
    Иностранец смотреть онлайн бесплатно в хорошем качестве


    Вы не можете начинать темы
    Вы не можете отвечать на сообщения
    Вы не можете редактировать свои сообщения
    Вы не можете удалять свои сообщения
    Вы не можете голосовать в опросах
    Вы не можете прикреплять файлы к сообщениям
    Вы можете скачивать файлы