Мега распродажа FORZA HORIZON 4 ULTIMATE+ВСЕ DLC+ОНЛАЙН всего за 499р. 349 руб. (супер цена). Внимание количество ограничено!!!

Лицензия

30

iTunes

мы

iTunes

1

1 сезон

Чернобыль

1 сезон

Ральф против интернета

MVO

Покемон. Детектив Пикачу

8 сезон

Игра престолов

iTunes

1+1

ИГРА 18+

pack

ВАЖНО

!!Акция!!

Alien_RageХит недели

RePack

Resident Evil 21
pack

RePack

Metro:Exodus

!!Акция!!

Alien_Rage

RePack

fifa19

RePack

Assassins Creed: Odyssey

RePack

NEED FOR SPEED™ PAYBACK

3 сезон

9 сезон

Бесстыжие 9 сезон

Все сериалы

все сериалы на PB.wtf

RePack

FAR CRY 5
Ребята, катастрофически не хватает 2730р. для оплаты серверов за МАЙ (всвязи с блокировками трафик упал в 3 раза), 1-2р., выручайте.
  

Золотое Рождество / A Golden Christmas (Джон Марловски) [2009 г, мелодрама, комедия, семейный, HDRip] DVO pb.wtf

Золотое Рождество через торрент pb.wtf

Размер: 1.45 GB | Добавлен: 1 год 5 мес. назад | Торрент скачан:14 раз
Скачать  

26-12-2017 18:33 Золотое Рождество Скачать торрент  

Золотое Рождество / A Golden Christmas
Год выпуска: 2009
Страна: США
Жанр: мелодрама, комедия, семейный
Продолжительность: 01:29:23
Перевод: Профессиональный двухголосый (Diva Universal)

Режиссер: Джон Марловски

rating

В ролях: Андреа Рот, Николас Брендон, Элиса Донован, Брюс Дэвисон, Элли Миллс, Джейсон Лондон, Дэниэл Зыков, Мелоди Холлис, Шерман, Роберт Сиэй

Описание: Маленькие дети - Джессика и Майкл - познакомились однажды летом, очень давно, благодаря особенной собаке. Но лето закончилось, и они уже больше никогда не видели друг друга. По прошествии многих лет, когда родители Джессики вышли на пенсию и захотели продать свой дом, она, недавно овдовевшая, решила начать все сначала, вернулась домой со своим сыном и решила купить дом в качестве рождественского подарка. Однако, выясняется, что дом уже продан, а его новый владелец - Майкл...

Качество: HDRip
Формат: AVI
Видео: XviD, 1923 Кбит/с, 704x400, 23.976 кадр/с
Аудио #1: AC3, 2 ch, 192 Кбит/с | Русский
Аудио #2: AC3, 2 ch, 192 Кбит/с | Английский
Релиз от: Koenig
скриншот   скриншот   скриншот   скриншот   скриншот   скриншот  

Общее
Полное имя : A.Golden.Christmas.2009.HDRip.avi
Формат : AVI
Формат/Информация : Audio Video Interleave
Размер файла : 1,45 Гбайт
Продолжительность : 1 ч. 29 м.
Общий поток : 2322 Кбит/сек
Программа кодирования : VirtualDubMod 1.5.10.2 (build 2540/release)
Библиотека кодирования : VirtualDubMod build 2540/release

Видео
Идентификатор : 0
Формат : MPEG-4 Visual
Профиль формата : Advanced Simple@L5
Параметр BVOP формата : 1
Параметр QPel формата : Нет
Параметр GMC формата : Без точки перехода
Параметр матрицы формата : Выборочная
Идентификатор кодека : XVID
Идентификатор кодека/Подсказка : XviD
Продолжительность : 1 ч. 29 м.
Битрейт : 1924 Кбит/сек
Ширина : 704 пикселя
Высота : 400 пикселей
Соотношение сторон : 16:9
Частота кадров : 23,976 (24000/1001) кадра/сек
Цветовое пространство : YUV
Субдискретизация насыщенности : 4:2:0
Битовая глубина : 8 бит
Тип развёртки : Прогрессивная
Метод сжатия : С потерями
Бит/(Пиксели*Кадры) : 0.285
Размер потока : 1,20 Гбайт (83%)
Библиотека кодирования : XviD 65

Аудио #1
Идентификатор : 1
Формат : AC-3
Формат/Информация : Audio Coding 3
Параметр Endianness формата : Big
Идентификатор кодека : 2000
Продолжительность : 1 ч. 29 м.
Вид битрейта : Постоянный
Битрейт : 192 Кбит/сек
Каналы : 2 канала
Расположение каналов : Front: L R
Частота : 48,0 КГц
Частота кадров : 31,250 кадров/сек (1536 spf)
Битовая глубина : 16 бит
Метод сжатия : С потерями
Размер потока : 123 Мбайт (8%)
Выравнивание : Разделение по промежуткам
Продолжительность промежутка : 42 мс. (1,00 видеокадр)
Время предзагрузки промежутка : 500 мс.
ServiceKind/String : Complete Main

Аудио #2
Идентификатор : 2
Формат : AC-3
Формат/Информация : Audio Coding 3
Параметр Endianness формата : Big
Идентификатор кодека : 2000
Продолжительность : 1 ч. 29 м.
Вид битрейта : Постоянный
Битрейт : 192 Кбит/сек
Каналы : 2 канала
Расположение каналов : Front: L R
Частота : 48,0 КГц
Частота кадров : 31,250 кадров/сек (1536 spf)
Битовая глубина : 16 бит
Метод сжатия : С потерями
Размер потока : 123 Мбайт (8%)
Выравнивание : Разделение по промежуткам
Продолжительность промежутка : 42 мс. (1,00 видеокадр)
Время предзагрузки промежутка : 500 мс.
ServiceKind/String : Complete Main

pb.wtf



Скачать Золотое Рождество через торрент http://pic1.kartinco.top/images/11/js8cv.jpg Скачать фильм Золотое Рождество через торрент бесплантно в хорошем качестве Описание: Маленькие дети - Джессика и Майкл - познакомились однажды летом, очень давно, благодаря особенной собаке. Но лето закончилось, и ... 5 10 1
Торрент: Зарегистрирован [2017-12-26 18:33] · скачан: 14 раз
Статус: √ проверено
Размер: 1.45 GB
Как cкачать? Как скачать Золотое Рождество через торрент | qTorrent


>> Регистрируемся здесь <<






Отзывы и комментарии о схеме читаем и пишем здесь: ---> Отзывы и комментарии о схеме

Новые благодарочки в телеграм довольных пользователей:
скриншот   скриншот   скриншот   скриншот   скриншот
    Дорогой пользователь! Огромная просьба, поблагодарите релизера, оцените раздачу и оставьте свои комментарий, если Вы скачали Золотое Рождество через торрент бесплатно! Внесите свою лепту в развитие PiratBit!
    Комментировать посты могут только пользователи прошедшие не сложную регистрацию
    Показать сообщения:    

    Золотое Рождество через торрент
    Скачать бесплатно Золотое Рождество
    Золотое Рождество скачать торрент
    Золотое Рождество смотреть онлайн
    Cкачать фильм Золотое Рождество бесплатно
    Золотое Рождество скачать торрент в хорошем качестве
    Золотое Рождество смотреть онлайн бесплатно в хорошем качестве


    Вы не можете начинать темы
    Вы не можете отвечать на сообщения
    Вы не можете редактировать свои сообщения
    Вы не можете удалять свои сообщения
    Вы не можете голосовать в опросах
    Вы не можете прикреплять файлы к сообщениям
    Вы можете скачивать файлы