2 сезон

iTunes

1 сезон

1

iTunes

iTunes

iTunes

1 сезон

RePack

30

ИГРА 18+

pack

ВАЖНО

!!Акция!!

Alien_RageХит недели

RePack

MK11
pack

Забери бонус

RePack

jed

!!Акция!!

Alien_Rage

RePack

fifa19

RePack

Assassins Creed: Odyssey

RePack

NEED FOR SPEED™ PAYBACK

4 сезон

9 сезон

Бесстыжие 9 сезон

Все сериалы

все сериалы на PB.wtf

RePack

FAR CRY 5
  

Агентство скрытых камер / Сезон: 1 / Серии 1-50 из 50 (Слава Падалка, Андрей Канивченко) [2016, Россия, Детектив, криминал, HDTVRip] pb.wtf

Агентство скрытых камер через торрент pb.wtf

Размер: 19.56 GB | Добавлен: 2 года 10 мес. назад | Торрент скачан:87 раз
Скачать  

27-12-2017 00:06 Агентство скрытых камер Скачать торрент  

Агентство скрытых камер


  • Год выпуска: 2016
  • Страна: Россия, НТВ
  • Жанр: Детектив, криминал
  • Продолжительность: ~ 00:30:00 (Серия)
  • Перевод: Не требуется [Русский]
  • Режиссер: Сергей Толкушкин
  • В ролях:
    Эдуард Флёров, Антонина Комиссарова, Руслан Корнеков, Антон Филипенко



  • Основатель «Агентства скрытых камер» Михаил Трошин (Эдуард Флёров) - бывший полковник ФСБ, который уволился в запас после неудачной операции. В каждой серии в его детективное бюро обращаются клиенты, которым угрожает опасность. Ноу-хау Трошина - скрытое наблюдение, которое гораздо эффективнее работы с уликами и допросов, на которых преступники ловко скрывают правду. Агентство располагает техническими средствами, которые подключаются к любому электронному устройству, записывающему изображение или звук. Это позволяет команде Трошина предотвращать преступления и выводить злоумышленников на чистую воду.
  • Качество: HDTVRip
  • Формат: :AVI
  • Видео кодек: XviD
  • Аудио кодек: AC3
  • Видео: 1721 Кбит/сек, 720*400 (16:9), в 25,000 кадров/сек, MPEG-4 Visual (XviD)
  • Аудио: русский 192 Кбит/сек, 48,0 КГц, 16 бит, 2 канала, AC-3
  • Релиз от: Files-x

    Общее
    Полное имя : F:\Agestvo.skrytix.kamer.2016.HDTVRip.Files-x\50.Agestvo.skrytix.kamer.2016.HDTVRip.Files-x.avi
    Формат : AVI
    Формат/Информация : Audio Video Interleave
    Размер файла : 401 Мбайт
    Продолжительность : 29 м. 7 с.
    Общий поток : 1923 Кбит/сек
    Программа кодирования : VirtualDubMod 1.5.10.3 | www.virtualdub-fr.org || (build 2550/release)
    Библиотека кодирования : VirtualDubMod build 2550/release

    Видео
    Идентификатор : 0
    Формат : MPEG-4 Visual
    Профиль формата : Advanced Simple@L5
    Настройки формата : BVOP1 / Custom Matrix
    Параметр BVOP формата : 1
    Параметр QPel формата : Нет
    Параметр GMC формата : Без точки перехода
    Параметр матрицы формата : Выборочная
    Идентификатор кодека : XVID
    Идентификатор кодека/Подсказка : XviD
    Продолжительность : 29 м. 7 с.
    Битрейт : 1721 Кбит/сек
    Ширина : 720 пикселей
    Высота : 400 пикселей
    Соотношение сторон : 16:9
    Частота кадров : 25,000 кадров/сек
    Цветовое пространство : YUV
    Субдискретизация насыщенности : 4:2:0
    Битовая глубина : 8 бит
    Тип развёртки : Прогрессивная
    Метод сжатия : С потерями
    Бит/(Пиксели*Кадры) : 0.239
    Размер потока : 359 Мбайт (90%)
    Библиотека кодирования : XviD 73

    Аудио
    Идентификатор : 1
    Формат : AC-3
    Формат/Информация : Audio Coding 3
    Идентификатор кодека : 2000
    Продолжительность : 29 м. 7 с.
    Вид битрейта : Постоянный
    Битрейт : 192 Кбит/сек
    Каналы : 2 канала
    Расположение каналов : Front: L R
    Частота : 48,0 КГц
    Частота кадров : 31,250 кадров/сек (1536 SPF)
    Битовая глубина : 16 бит
    Метод сжатия : С потерями
    Размер потока : 40,0 Мбайт (10%)
    Выравнивание : Разделение по промежуткам
    Продолжительность промежутка : 40 мс. (1,00 видеокадр)
    Время предзагрузки промежутка : 500 мс.
    ServiceKind/String : Complete Main

    Скриншоты:
    скриншот   скриншот   скриншот   скриншот   скриншот   скриншот   скриншот  
    скриншот  


    pb.wtf



  • Скачать Агентство скрытых камер через торрент http://pic1.kartinco.top/images/11/rdmj8.jpg Скачать фильм Агентство скрытых камер через торрент бесплантно в хорошем качестве qw.png Основатель «Агентства скрытых камер» Михаил Трошин (Эдуард Флёров) - бывший полковник ФСБ, который уволился в запас после ... 10 10 5
    Info! Золотая раздача, скачанное не засчитывается.
    Торрент: Зарегистрирован [2017-12-27 00:06] · скачан: 87 раз
    Статус: √ проверено
    Размер: 19.56 GB
    Как cкачать? Как скачать Агентство скрытых камер через торрент | qTorrent

    % Раздел Тема Автор DL S | L
    Наши сериалы [ 77.08 GB ] Агентство скрытых камер / Сезон: 1 / Серии 1-50 из 50 [2016 Россия HDTV 1080i] GEKADOL Скачать
    1 | 0

    28-11-2019 20:33  

    Отключить всю рекламу на сайте

      Дорогой пользователь! Огромная просьба, поблагодарите релизера, оцените раздачу и оставьте свои комментарий, если Вы скачали Агентство скрытых камер через торрент бесплатно! Внесите свою лепту в развитие PiratBit!
      Комментировать посты могут только пользователи прошедшие не сложную регистрацию
      Показать сообщения:    

      Агентство скрытых камер через торрент
      Скачать бесплатно Агентство скрытых камер
      Агентство скрытых камер скачать торрент
      Агентство скрытых камер смотреть онлайн
      Cкачать фильм Агентство скрытых камер бесплатно
      Агентство скрытых камер скачать торрент в хорошем качестве
      Агентство скрытых камер смотреть онлайн бесплатно в хорошем качестве


      Вы не можете начинать темы
      Вы не можете отвечать на сообщения
      Вы не можете редактировать свои сообщения
      Вы не можете удалять свои сообщения
      Вы не можете голосовать в опросах
      Вы не можете прикреплять файлы к сообщениям
      Вы можете скачивать файлы