Доктор Стрэндж

Лицензия

Добыча

Дубляж

Дом дракона

1 сезон

Тор

Дубляж

В эфире

Дубляж

Там, где раки поют

MVO

Властелин колец

1 сезон

GLOBAL

pack

Рекомендуем

30

Пиратка

ВАЖНО

ВАЖНО

Ghostwire

Пиратка

jed

RePack

nioh2

RePack

RDR2

RePack

NEED FOR SPEED™ PAYBACK

RePack

скачать торрент

Кинопоиск HD

Острые козырьки 6 сезон

6 сезон

FAR CRY 6

RePack

скачать торрент

Лицензия

скачать торрент

MVO

1

1 сезон

скачать торрент

1 сезон

скачать торрент

Лицензия

  

Иностранец / The Foreigner (Мартин Кэмпбелл) [2017, боевик, триллер, WEB-DLRip, КПК] Дубляж [iTunes]

Иностранец через торрент pb.wtf

Размер: 430 MB | Добавлен: 4 года 11 мес. назад | Торрент скачан:72 раза
| Скачать   

27-12-2017 05:01 Иностранец Скачать торрент  

Иностранец / The ForeignerГод выпуска: 2017
Страна: Великобритания Китай США
Жанр: боевик, триллер
Продолжительность: 01:53:17
Перевод: Дубляж [iTunes]
Субтитры: отсутствуют

Режиссер: Мартин Кэмпбелл

rating

В ролях:

Кэти Льюнг, Джеки Чан, Пирс Броснан, Руфус Джонс, Марк Тэнди, Джон Кронин, Каолан Бирн, Донна Бернард, Аарон Монахэн

Описание:

Бывший спецагент, ветеран вьетнамской войны Цюань давно сложил оружие и завёл мирную жизнь. Но после того, как в теракте прямо на глазах погибает его дочь-подросток, видя, что власти не спешат разыскивать преступников, Цюань сам начинает поиск убийцы. Он пойдет на всё, чтобы совершить праведное возмездие…

Качество: WEB-DLRip
Формат: MP4
Видео кодек: AVC
Аудио кодек: AAC-LC

Видео: Н.264, 640x264 (2.40:1), 24.000 fps, 400 Kbps
Аудио: AAC LC, 48.0 KHz, 2 ch, 128 Kbps
скриншот   скриншот   скриншот  

Общее
Полное имя : D:\Inostranec.2017.WeB-DLRip.by.mjjhec.mp4
Формат : MPEG-4
Профиль формата : Base Media
Идентификатор кодека : isom (isom/avc1/iso6)
Размер файла : 430 Мбайт
Продолжительность : 1 ч. 53 м.
Режим общего битрейта : Переменный
Общий поток : 530 Кбит/сек
Дата кодирования : UTC 2017-12-26 09:27:21
Дата пометки : UTC 2017-12-26 09:27:21

Видео
Идентификатор : 1
Формат : AVC
Формат/Информация : Advanced Video Codec
Профиль формата : [email protected]
Параметр CABAC формата : Да
Параметр ReFrames формата : 10 кадров
Идентификатор кодека : avc1
Идентификатор кодека/Информация : Advanced Video Coding
Продолжительность : 1 ч. 53 м.
Битрейт : 400 Кбит/сек
Максимальный битрейт : 1869 Кбит/сек
Ширина : 640 пикселей
Высота : 264 пикселя
Соотношение сторон : 2,40:1
Режим частоты кадров : Постоянный
Частота кадров : 24,000 кадра/сек
Цветовое пространство : YUV
Субдискретизация насыщенности : 4:2:0
Битовая глубина : 8 бит
Тип развёртки : Прогрессивная
Бит/(Пиксели*Кадры) : 0.099
Размер потока : 323 Мбайт (75%)
Заголовок : [email protected]
Библиотека кодирования : x264 core 146 r2538 121396c
Настройки программы : cabac=1 / ref=10 / deblock=1:-3:-3 / analyse=0x3:0x133 / me=umh / subme=11 / psy=1 / psy_rd=1.00:1.00 / mixed_ref=1 / me_range=48 / chroma_me=1 / trellis=2 / 8x8dct=1 / cqm=0 / deadzone=21,11 / fast_pskip=1 / chroma_qp_offset=-4 / threads=6 / lookahead_threads=1 / sliced_threads=0 / nr=0 / decimate=0 / interlaced=0 / bluray_compat=0 / constrained_intra=0 / bframes=10 / b_pyramid=2 / b_adapt=2 / b_bias=0 / direct=3 / weightb=1 / open_gop=0 / weightp=2 / keyint=240 / keyint_min=23 / scenecut=40 / intra_refresh=0 / rc_lookahead=60 / rc=2pass / mbtree=0 / bitrate=400 / ratetol=1.0 / qcomp=0.60 / qpmin=0 / qpmax=69 / qpstep=4 / cplxblur=20.0 / qblur=0.5 / vbv_maxrate=14000 / vbv_bufsize=14000 / nal_hrd=none / filler=0 / ip_ratio=1.40 / pb_ratio=1.30 / aq=1:1.00
Дата кодирования : UTC 2017-12-26 09:27:21
Дата пометки : UTC 2017-12-26 09:27:31

Аудио
Идентификатор : 2
Формат : AAC
Формат/Информация : Advanced Audio Codec
Профиль формата : LC
Идентификатор кодека : 40
Продолжительность : 1 ч. 53 м.
Вид битрейта : Переменный
Битрейт : 128 Кбит/сек
Максимальный битрейт : 136 Кбит/сек
Каналы : 2 канала
Расположение каналов : Front: L R
Частота : 48,0 КГц
Частота кадров : 46,875 кадров/сек (1024 spf)
Метод сжатия : С потерями
Размер потока : 104 Мбайт (24%)
Дата кодирования : UTC 2017-12-26 07:36:48
Дата пометки : UTC 2017-12-26 09:27:31




Скачать Иностранец через торрент http://img12.lostpic.net/2017/10/12/77ab86cf9e4a64aed0f4fb009d07f1da.png Скачать, смотреть онлайн Иностранец бесплантно в хорошем качестве Описание: Бывший спецагент, ветеран вьетнамской войны Цюань давно сложил оружие и завёл мирную жизнь. Но после того, как в теракте прямо на ... 10 10 4
Торрент: Зарегистрирован [2017-12-27 05:01] · скачан: 72 раз
Статус: √ проверено
Размер: 430 MB
Как cкачать? Как скачать Иностранец через торрент | UTorrent

% Раздел Тема Автор DL S | L
Фильмы [HD 720p, 1080p] (Хороший звук DUB, MVO) [ 8.71 GB ] Иностранец / The Foreigner | DUB + AVO - KORSAR | 1080p kisa1980 Скачать
1 | 0
Фильмы (Blu-ray, BD-Remux, HDDVD) [ 31.57 GB ] Иностранец / The Foreigner | Лицензия | BD Remux 1080p bober100 Скачать
1 | 0
Фильмы 2017 [DVDrip, WEB-DLRip, HDrip] (DUB, MVO) [ 746 MB ] Иностранец / The Foreigner | Лицензия | BDRip-AVC sokol_ok Скачать
2 | 0
Фильмы 2017 [DVDrip, WEB-DLRip, HDrip] (DUB, MVO) [ 2.9 GB ] Иностранец / The Foreigner | Лицензия | BDRip-AVC sokol_ok Скачать
2 | 0
Фильмы 2017 [DVDrip, WEB-DLRip, HDrip] (DUB, MVO) [ 1.34 GB ] Иностранец / The Foreigner | Лицензия | BDRip-AVC sokol_ok Скачать
2 | 0
Фильмы 2017 [DVDrip, WEB-DLRip, HDrip] (DUB, MVO) [ 1.46 GB ] Иностранец / The Foreigner | Лицензия | BDRip-AVC bober100 Скачать
1 | 0
Фильмы [HD 720p, 1080p] (Хороший звук DUB, MVO) [ 7.24 GB ] Иностранец / The Foreigner | Лицензия | 720p bober100 Скачать
1 | 0

28-11-2019 20:33  


Отключить вcю реклaмy на сайте, в т.ч. и в плеере онлайн просмотра!

    Дорогой пользователь! Огромная просьба, поблагодарите релизера, оцените раздачу и оставьте свои комментарий, если Вы скачали Иностранец через торрент бесплатно!!
    Комментировать посты могут только пользователи прошедшие не сложную регистрацию
    Показать сообщения:    


    Иностранец через торрент
    Скачать бесплатно Иностранец
    Иностранец скачать торрент
    Иностранец смотреть онлайн
    Cкачать фильм Иностранец бесплатно
    Иностранец скачать торрент в хорошем качестве
    Иностранец смотреть онлайн бесплатно в хорошем качестве
    Вы не можете начинать темы
    Вы не можете отвечать на сообщения
    Вы не можете редактировать свои сообщения
    Вы не можете удалять свои сообщения
    Вы не можете голосовать в опросах
    Вы не можете прикреплять файлы к сообщениям
    Вы можете скачивать файлы
    Иностранец / The Foreigner [2017, боевик, триллер, WEB-DLRip, КПК] Дубляж [iTunes] смотреть онлайн, скачать торрент picoco.icu