2 сезон

iTunes

MVO

1

2 сезон

iTunes

iTunes

1 сезон

RePack

30

Ultimate

ВАЖНО

ИГРА 18+

pack

RePack

MK11
pack

Легкие деньги

RePack

jed

RePack

fifa19

RePack

RDR2

RePack

NEED FOR SPEED™ PAYBACK

4 сезон

9 сезон

Бесстыжие 9 сезон

Все сериалы

все сериалы на PB.wtf

RePack

FAR CRY 5

Anonymous, доброй ночи, мы не успеваем собрать деньги на оплату серверов за декабрь и январь, помогите нам пожалуйста в это трудное время. В качестве благодарности мы отключим Вам всю рекламу на сайте (укажите свой ник в строку Ваше имя)!

×
  
Magnet ссылка

Мама! / Mother! (Даррен Аронофски) [2017 г., ужасы, триллер, драма, детектив, BDRip-AVC ] Dub [Лицензия] - ExKinoRay pb.wtf

Мама! через торрент pb.wtf

Размер: 2.63 GB | Добавлен: 2 года 11 мес. назад | Торрент скачан:99 раз
Скачать  

27-12-2017 05:48 Мама! Скачать торрент  

Информация о фильме
Название: мама!
Оригинальное название: mother!
Год выхода: 2017
Жанр: Ужасы, триллер, драма, авторское кино
Режиссер: Даррен Аронофски
В ролях: Дженнифер Лоуренс, Хавьер Бардем, Эд Харрис, Мишель Пфайффер, Брин Глисон, Донал Глисон, Йован Адепо, Патриция Саммерсетт, Эрик Дэвис

Описание:
Отношения молодой пары оказываются под угрозой, когда, нарушая безмятежное существование супругов, в их дом заявляются незваные гости...

rating

Страна: США
Студия: Protozoa Pictures
Продолжительность: 02:01:11
Перевод: Дублированный | Лицензия

Файл
Контейнер: MKV
Качество: BDRip-AVC
Видео: AVC, 1024x428 (2.40:1), 23.976 fps, 2210 Kbps, 0.210 bit/pixel
Аудио 1: AC-3, 48.0 KHz, 5.1 ch, 448 Kbps, CBR (Russian)
Аудио 2: AC-3, 48.0 KHz, 5.1 ch, 448 Kbps, CBR (ENG)
Субтитры: Русские, английские
General
Unique ID : 206599451016714601655245585697503378782 (0x9B6D9B5F27C5386F8AE9A39B3E16FD5E)
Complete name : D:\Natalia\New12.2017\Mother!.2017.BDRip.AVC.ExKinoRay.mkv
Format : Matroska
Format version : Version 2
File size : 2.63 GiB
Duration : 2 h 1 min
Overall bit rate : 3 107 kb/s
Movie name : mother! (2017) from ExKinoRay
Encoded date : UTC 2018-02-09 12:27:15
Writing application : mkvmerge v5.6.0 ('Kenya Kane') built on May 27 2012 16:44:04
Writing library : libebml v1.2.3 + libmatroska v1.3.0

Video
ID : 1
Format : AVC
Format/Info : Advanced Video Codec
Format profile : High@L4.1
Format settings, CABAC : Yes
Format settings, ReFrames : 14 frames
Codec ID : V_MPEG4/ISO/AVC
Duration : 2 h 1 min
Bit rate : 2 210 kb/s
Width : 1 024 pixels
Height : 428 pixels
Display aspect ratio : 2.40:1
Frame rate mode : Constant
Frame rate : 23.976 (23976/1000) FPS
Color space : YUV
Chroma subsampling : 4:2:0
Bit depth : 8 bits
Scan type : Progressive
Bits/(Pixel*Frame) : 0.210
Stream size : 1.82 GiB (69%)
Title : Enigma
Writing library : x264 core 152 r2851 ba24899
Encoding settings : cabac=1 / ref=14 / deblock=1:-2:-2 / analyse=0x3:0x113 / me=umh / subme=11 / psy=1 / psy_rd=1.00:0.00 / mixed_ref=1 / me_range=32 / chroma_me=1 / trellis=2 / 8x8dct=1 / cqm=0 / deadzone=21,11 / fast_pskip=0 / chroma_qp_offset=-2 / threads=12 / lookahead_threads=3 / sliced_threads=0 / nr=0 / decimate=0 / interlaced=0 / bluray_compat=0 / constrained_intra=0 / bframes=12 / b_pyramid=2 / b_adapt=2 / b_bias=0 / direct=3 / weightb=1 / open_gop=0 / weightp=2 / keyint=240 / keyint_min=23 / scenecut=40 / intra_refresh=0 / rc_lookahead=40 / rc=2pass / mbtree=0 / bitrate=2210 / ratetol=1.0 / qcomp=0.65 / qpmin=0 / qpmax=51 / qpstep=4 / cplxblur=20.0 / qblur=0.5 / vbv_maxrate=50000 / vbv_bufsize=62500 / nal_hrd=none / filler=0 / ip_ratio=1.40 / pb_ratio=1.30 / aq=3:0.80
Language : English
Default : Yes
Forced : No

Audio #1
ID : 2
Format : AC-3
Format/Info : Audio Coding 3
Mode extension : CM (complete main)
Format settings, Endianness : Big
Codec ID : A_AC3
Duration : 2 h 1 min
Bit rate mode : Constant
Bit rate : 448 kb/s
Channel(s) : 6 channels
Channel positions : Front: L C R, Side: L R, LFE
Sampling rate : 48.0 kHz
Frame rate : 31.250 FPS (1536 spf)
Compression mode : Lossy
Stream size : 388 MiB (14%)
Title : Dub (R5)
Language : Russian
Default : Yes
Forced : No

Audio #2
ID : 3
Format : AC-3
Format/Info : Audio Coding 3
Mode extension : CM (complete main)
Format settings, Endianness : Big
Codec ID : A_AC3
Duration : 2 h 1 min
Bit rate mode : Constant
Bit rate : 448 kb/s
Channel(s) : 6 channels
Channel positions : Front: L C R, Side: L R, LFE
Sampling rate : 48.0 kHz
Frame rate : 31.250 FPS (1536 spf)
Compression mode : Lossy
Stream size : 388 MiB (14%)
Language : English
Default : No
Forced : No

Text #1
ID : 4
Format : UTF-8
Codec ID : S_TEXT/UTF8
Codec ID/Info : UTF-8 Plain Text
Title : iTunes
Language : Russian
Default : No
Forced : No

Text #2
ID : 5
Format : UTF-8
Codec ID : S_TEXT/UTF8
Codec ID/Info : UTF-8 Plain Text
Title : Full
Language : English
Default : No
Forced : No

Text #3
ID : 6
Format : UTF-8
Codec ID : S_TEXT/UTF8
Codec ID/Info : UTF-8 Plain Text
Title : SDH
Language : English
Default : No
Forced : No

Text #4
ID : 7
Format : UTF-8
Codec ID : S_TEXT/UTF8
Codec ID/Info : UTF-8 Plain Text
Title : SDH-Colored
Language : English
Default : No
Forced : No

Menu
00:00:00.000 : en:00:00:00.000
00:06:22.507 : en:00:06:22.507
00:10:21.079 : en:00:10:21.079
00:15:59.500 : en:00:15:59.500
00:21:37.922 : en:00:21:37.922
00:24:59.415 : en:00:24:59.415
00:31:31.056 : en:00:31:31.056
00:38:29.224 : en:00:38:29.224
00:44:57.028 : en:00:44:57.028
00:49:35.764 : en:00:49:35.764
00:53:43.303 : en:00:53:43.303
01:02:19.694 : en:01:02:19.694
01:08:24.809 : en:01:08:24.809
01:16:52.191 : en:01:16:52.191
01:20:30.909 : en:01:20:30.909
01:28:26.885 : en:01:28:26.885
01:38:08.716 : en:01:38:08.716
01:45:52.638 : en:01:45:52.638
01:49:48.624 : en:01:49:48.624
01:56:21.183 : en:01:56:21.183
Релиз от:

Автор релиза: pb.wtf



Скачать Мама! через торрент http://i101.fastpic.ru/big/2017/1206/a2/261c15e5ecdfe41611649c5507d8c7a2.jpg Скачать фильм Мама! через торрент бесплантно в хорошем качестве Описание:Отношения молодой пары оказываются под угрозой, когда, нарушая безмятежное существование супругов, в их дом заявляются незваные ... 7.9 10 13
Info! Золотая раздача, скачанное не засчитывается.
Торрент: Зарегистрирован [2018-02-09 14:01] · скачан: 99 раз
Статус: √ проверено
Размер: 2.63 GB
Как cкачать? Как скачать Мама! через торрент | UTorrent



Последний раз редактировалось: Enigma2010 (2018-02-09 14:00), всего редактировалось 2 раз(а)

28-11-2019 20:33  

Отключить всю рекламу на сайте

27-12-2017 09:01 Мама! Скачать торрент  

Фильм , бредовый!pb.wtf



27-12-2017 09:54 Мама! Скачать торрент  

не согласен. фильм нормальныйpb.wtf



27-12-2017 10:25 Мама! Скачать торрент  

не все таки бредовыйpb.wtf



27-12-2017 11:56 Мама! Скачать торрент  

Бредятинаpb.wtf



04-01-2018 15:04 Мама! Скачать торрент  

"Ребята, у меня тут жизнь немного не сложилась... Так я вот сердце себе вырезала, забирайте кому надо, а так перекантуюсь." Это что вообще было? Авторское кино все такое?pb.wtf



09-02-2018 14:02 Мама! Скачать торрент  

Замена на лицензию.pb.wtf



10-02-2018 22:10 Мама! Скачать торрент  

Боже какой бредpb.wtf



    Дорогой пользователь! Огромная просьба, поблагодарите релизера, оцените раздачу и оставьте свои комментарий, если Вы скачали Мама! через торрент бесплатно! Внесите свою лепту в развитие PiratBit!
    Комментировать посты могут только пользователи прошедшие не сложную регистрацию
    Показать сообщения:    

    Мама! через торрент
    Скачать бесплатно Мама!
    Мама! скачать торрент
    Мама! смотреть онлайн
    Cкачать фильм Мама! бесплатно
    Мама! скачать торрент в хорошем качестве
    Мама! смотреть онлайн бесплатно в хорошем качестве


    Вы не можете начинать темы
    Вы не можете отвечать на сообщения
    Вы не можете редактировать свои сообщения
    Вы не можете удалять свои сообщения
    Вы не можете голосовать в опросах
    Вы не можете прикреплять файлы к сообщениям
    Вы можете скачивать файлы